<?xml version="1.0" standalone="no"?>
<!DOCTYPE svg PUBLIC "-//W3C//DTD SVG 1.1//EN" "http://www.w3.org/Graphics/SVG/1.1/DTD/svg11.dtd" >
<svg>
<metadata>
Created by FontForge 20090914 at Fri Feb  7 07:55:10 2014
 By www-data
Copyright (c) 2011 TypeSETit, LLC (typesetit@att.net),with Reserved Font Name "Alex Brush"
</metadata>
<defs>
<font id="AlexBrush-Regular" horiz-adv-x="226" >
  <font-face 
    font-family="Alex Brush"
    font-weight="400"
    font-stretch="normal"
    units-per-em="1000"
    panose-1="2 0 4 0 0 0 0 0 0 0"
    ascent="800"
    descent="-200"
    x-height="297.002"
    cap-height="703"
    bbox="-501 -425.001 1610 825.003"
    underline-thickness="20"
    underline-position="-123"
    unicode-range="U+0020-U+FB02"
  />
<missing-glyph horiz-adv-x="500" 
d="M63 0v750h375v-750h-375zM125 63h250v625h-250v-625z" />
    <glyph glyph-name=".notdef" horiz-adv-x="500" 
d="M63 0v750h375v-750h-375zM125 63h250v625h-250v-625z" />
    <glyph glyph-name="space" unicode=" " horiz-adv-x="198" 
 />
    <glyph glyph-name="exclam" unicode="!" horiz-adv-x="259" 
d="M139 117c-4.66699 0 -6 6.33301 -4 19c8 46 39 109.5 93 190.5s90.667 121.5 110 121.5c8 0 16.833 -1.5 26.5 -4.5s14.5 -7.16699 14.5 -12.5c0 -2 -1.33301 -4.33301 -4 -7c-28 -29.333 -69.167 -79.833 -123.5 -151.5s-85 -115.5 -92 -131.5s-13.833 -24 -20.5 -24z
M144 56.5c8.66699 -6.33301 13 -13.832 13 -22.499s-4.16699 -16.167 -12.5 -22.5s-17.5 -9.5 -27.5 -9.5s-19.167 3.66699 -27.5 11s-12.5 15.666 -12.5 24.999c0 18.667 13 28 39 28c10 0 19.333 -3.16699 28 -9.5z" />
    <glyph glyph-name="quotedbl" unicode="&#x22;" horiz-adv-x="206" 
d="M206 438c0 -28 -10.667 -53.167 -32 -75.5s-35.833 -33.5 -43.5 -33.5s-11.5 0.833008 -11.5 2.5s7.16699 10.667 21.5 27s21.5 29.333 21.5 39s-4.5 18.5 -13.5 26.5s-13.5 14 -13.5 18c0 20 10 30 30 30c10 0 19.333 -3.33301 28 -10s13 -14.667 13 -24zM105 438
c0 -28 -10.833 -53.166 -32.5 -75.499s-37.5 -33.5 -47.5 -33.5c-5.33301 0 -8 1 -8 3c2.66699 3.33301 6.16699 7.33301 10.5 12l12.5 14c14 15.333 21 28.166 21 38.499s-4.5 19.5 -13.5 27.5s-13.5 14 -13.5 18c0 20 9.66699 30 29 30c10 0 19.5 -3.33301 28.5 -10
s13.5 -14.667 13.5 -24z" />
    <glyph glyph-name="numbersign" unicode="#" horiz-adv-x="791" 
d="M577 474l165.998 4.00098c23.333 0 35 -2.5 35 -7.5s-7.66699 -10.167 -23 -15.5c-37.333 -14.667 -70.333 -22 -99 -22h-94l-66 -175l144 1c33.333 0 50 -3.66699 50 -11c0 -5.33301 -7.33301 -10.333 -22 -15c-36 -12.667 -69 -19 -99 -19l-90 -1l-35 -96
c-18 -52.667 -35.333 -79 -52 -79c-8 0 -12 5.33301 -12 16s1.66699 23.334 5 38.001c12 30 27 70.333 45 121l-197 -1l-35 -95c-18 -52.667 -35 -79 -51 -79c-8.66699 0 -13 5.66699 -13 17s2 23.666 6 36.999c14 32 30.333 72 49 120l-105 -1
c-62.667 0 -94 8.66699 -94 26c0 11.333 17 18 51 20l166 1l63 174c-68 -0.666992 -103 -1 -105 -1c-53.333 0 -82 7.33301 -86 22c-5.33301 13.333 11 21.333 49 24c14.667 0 67.334 -0.666992 158.001 -2l46 130c10.667 29.333 19 44 25 44s9 -9 9 -27
c-1.33301 -39.333 -6.66602 -72 -15.999 -98l-18 -49c104 -1.33301 167.667 -2 191 -2c42.667 114 70 172 82 174c6.66699 1.33301 10 -7.33398 10 -26.001c-2 -36.667 -8.33301 -69 -19 -97zM315.998 432.001l-66 -174h196l62 175z" />
    <glyph glyph-name="dollar" unicode="$" horiz-adv-x="537" 
d="M184 220c43.333 0 85.168 8.16602 125.501 24.499s70.166 40.5 89.499 72.5c7.33301 12.667 11 23.334 11 32.001c0 14.667 -9.66699 26.167 -29 34.5s-50.333 16.5 -93 24.5c-56 -74.667 -101 -137 -135 -187c6.66699 -0.666992 17 -1 31 -1zM223.002 493.999
c0 -19.333 17.333 -34.333 52 -45l110 144c-57.333 -5.33301 -101.333 -21.666 -132 -48.999c-20 -18.667 -30 -35.334 -30 -50.001zM143.002 207.999c-56.667 -85.333 -85.002 -140.669 -85.002 -166.002c0 -11.333 3.66699 -18.666 11 -21.999
c2.66699 -2 1.83398 -5.33301 -2.49902 -10s-9.83301 -7 -16.5 -7c-10 0 -15 9.83301 -15 29.5s6.33301 47.167 19 82.5c6.66699 17.333 25 50 55 98c-51.333 12.667 -83.333 39 -96 79c-4 9.33301 -6 19.333 -6 30s3.33301 22 10 34c12 20.667 27.333 31 46 31
c4 0 6 -0.666992 6 -2c0 -2.66699 -4 -6.33398 -12 -11.001l-17 -12c-7.33301 -7.33301 -11 -17.666 -11 -30.999c0 -24.667 9 -46.5 27 -65.5s38.667 -31.833 62 -38.5c38 57.333 82.333 120.333 133 189c-44.667 12 -67 34.333 -67 67c0 24 15 48 45 72
c46 36 103.333 55.333 172 58c64.667 80.667 100.667 121 108 121s12.833 -1.83301 16.5 -5.5s5.5 -7.66699 5.5 -12s-2.66699 -9.83301 -8 -16.5l-75 -90c55.333 -8 83 -29.667 83 -65c0 -24.667 -13 -42 -39 -52c-15.333 -6 -28.166 -9 -38.499 -9s-15.5 2.66699 -15.5 8
c0 2.66699 4.66699 4.33398 14 5.00098c34.667 2 52 15 52 39c0 31.333 -23.667 50 -71 56l-120 -152c20.667 -2.66699 51.667 -9.66699 93 -21c32 -12.667 48 -31 48 -55s-11 -48 -33 -72s-44.667 -41.333 -68 -52c-49.333 -22.667 -105.333 -34 -168 -34
c-10.667 0 -24.667 0.666992 -42 2z" />
    <glyph glyph-name="percent" unicode="%" horiz-adv-x="701" 
d="M645 705c2.66699 1.33301 5.99805 2 9.99805 2s8.16699 -2.16699 12.5 -6.5s6.5 -8.83301 6.5 -13.5s-3 -10.667 -9 -18c-90 -103.333 -193.167 -233.166 -309.5 -389.499s-185.166 -262.5 -206.499 -318.5c-4 -12 -6 -23.5 -6 -34.5s2.5 -17.833 7.5 -20.5
s6.16699 -6.33398 3.5 -11.001c-4.66699 -6.66699 -11.667 -10 -21 -10c-11.333 0 -17 11 -17 33s7.83301 54.667 23.5 98s79.334 141.833 191.001 295.5s203.5 271.5 275.5 353.5c-33.333 -16 -73.833 -31 -121.5 -45s-87.5 -21.667 -119.5 -23
c0.666992 -2.66699 1 -5.66699 1 -9c0 -23.333 -22.333 -62.333 -67 -117c-52.667 -64.667 -97.667 -97 -135 -97h-16c-17.333 0 -31 9 -41 27c-8 12.667 -12 26.667 -12 42c0 40 29.167 96.167 87.5 168.5s105.5 108.5 141.5 108.5c34 0 51 -18 51 -54
c0 -9.33301 -1.66699 -21.333 -5 -36c0.666992 -1.33301 4 -2 10 -2s16.333 1 31 3c67.333 8 145.333 32.667 234 74zM587.998 163c0 -8.66699 -7.66699 -15.999 -23 -21.999c0.666992 -2.66699 1 -5.66699 1 -9c0 -23.333 -22.333 -62.333 -67 -117
c-52.667 -64.667 -97.667 -97 -135 -97h-16c-17.333 0 -31 9 -41 27c-8 12.667 -12 26.667 -12 42c0 40 29.167 96.167 87.5 168.5s105.5 108.5 141.5 108.5c34 0 51 -18 51 -54c0 -9.33301 -1.66699 -21.333 -5 -36c0 -0.666992 3 -1.83398 9 -3.50098s9 -4.16699 9 -7.5z
M300.998 640.001c-22.667 0 -54.833 -26.668 -96.5 -80.001s-62.5 -92.666 -62.5 -117.999s8 -38 24 -38c28.667 0 65 26 109 78s66 89.333 66 112c-10.667 6 -24 21.333 -40 46zM500.999 184c-22.667 0 -54.833 -26.668 -96.5 -80.001s-62.5 -92.666 -62.5 -117.999
s8 -38 24 -38c28.667 0 65 26 109 78s66 89.333 66 112c-10.667 6 -24 21.333 -40 46z" />
    <glyph glyph-name="ampersand" unicode="&#x26;" horiz-adv-x="753" 
d="M390 445c37.333 0 55.999 -7.66797 55.999 -23.001c0 -4 -1.33301 -7.33301 -4 -10c-8.66699 -14.667 -27.5 -22 -56.5 -22s-55.167 8.66699 -78.5 26c-36 -10.667 -78 -33.334 -126 -68.001c-74.667 -55.333 -112 -109.666 -112 -162.999
c0 -59.333 40.333 -92.333 121 -99c16 98.667 64 172.667 144 222c26 16.667 54 28.5 84 35.5s50.5 11.667 61.5 14s29.667 5.66602 56 9.99902l45.5 7.5c62 10.667 101.833 22.667 119.5 36s26.5 26 26.5 38c0 3.33301 -0.5 7 -1.5 11s-0.166992 6.33301 2.5 7
s5.66699 -0.333008 9 -3c5.33301 -7.33301 8 -16.333 8 -27s-6.66699 -23.667 -20 -39c-20 -20 -47.667 -34 -83 -42c-13.333 -3.33301 -31.166 -7.16602 -53.499 -11.499s-38.5 -7.83301 -48.5 -10.5c12.667 -12 19 -30 19 -54c0 -49.333 -29.333 -97.666 -88 -144.999
c-64.667 -52 -151.334 -78 -260.001 -78c-0.666992 -5.33301 -1 -13.666 -1 -24.999c0 -46.667 15.5 -83.5 46.5 -110.5s70.167 -40.5 117.5 -40.5c16.667 0 31 5.5 43 16.5s18 23.5 18 37.5c0 4.66699 -1.33301 10 -4 16s-0.166992 9 7.5 9s11.5 -8.83301 11.5 -26.5
s-7.66699 -33.334 -23 -47.001s-33 -20.5 -53 -20.5c-52 0 -95.333 14.333 -130 43c-39.333 31.333 -59 72.333 -59 123c0 11.333 0.333008 20 1 26c-58 5.33301 -102 20 -132 44c-27.333 23.333 -41 49 -41 77c0 64.667 49.333 126.334 148 185.001c46 28 91 49 135 63
c-18.667 20.667 -28 47.667 -28 81c0 17.333 4 31.666 12 42.999c22 31.333 55.333 56.333 100 75c52.667 23.333 106 35 160 35c71.333 0 106.333 -22.333 105 -67c-1.33301 -19.333 -9.5 -36.166 -24.5 -50.499s-31.5 -21.5 -49.5 -21.5s-27 4.66699 -27 14
c0 6.66699 4.33301 10 13 10l17 -3c9.33301 0 18.5 5.66699 27.5 17s13.5 22.666 13.5 33.999c0 18 -10.333 31 -31 39c-13.333 4.66699 -26 7 -38 7c-56 0 -102.667 -11.667 -140 -35s-64.666 -49.333 -81.999 -78c-10 -16.667 -15 -34 -15 -52s4 -31.667 12 -41
c26 7.33301 49 11 69 11zM525.999 286.999c0 29.333 -12.668 44.001 -38.001 44.001c-8 0 -24.333 -3 -49 -9c-128.667 -48 -203.667 -127 -225 -237c14.667 0 29.334 1 44.001 3c86 9.33301 154.333 36.666 205 81.999c42 38 63 77 63 117zM415.998 419
c0 6 -8.83301 9 -26.5 9s-36.5 -2 -56.5 -6c16.667 -10.667 34.667 -16 54 -16s29 4.33301 29 13z" />
    <glyph glyph-name="quotesingle" unicode="'" horiz-adv-x="130" 
d="M79 269c-4 0 -6 1.33203 -6 3.99902s9 15.5 27 38.5s27 39.5 27 49.5s-4.5 19 -13.5 27s-13.5 14 -13.5 18c0 20 9.66699 30 29 30c10 0 19.5 -3.16699 28.5 -9.5s13.5 -14.166 13.5 -23.499c0 -28.667 -12.667 -58.167 -38 -88.5s-43.333 -45.5 -54 -45.5z" />
    <glyph glyph-name="parenleft" unicode="(" horiz-adv-x="375" 
d="M615 760c13.333 -2 20.002 -6.16699 20.002 -12.5s-8.33301 -9.83301 -25 -10.5c-116.667 -11.333 -224.667 -60 -324 -146c-72.667 -64 -129.834 -135.333 -171.501 -214s-62.5 -146.5 -62.5 -203.5s12.833 -100.667 38.5 -131s62.5 -47.5 110.5 -51.5
c15.333 -1.33301 23 -5 23 -11c0 -9.33301 -8 -14 -24 -14h-9c-53.333 5.33301 -99.333 29.5 -138 72.5s-58 98.833 -58 167.5c0 53.333 13.667 110 41 170c39.333 86 111.666 166.667 216.999 242c117.333 84.667 238 132 362 142z" />
    <glyph glyph-name="parenright" unicode=")" horiz-adv-x="651" 
d="M30 -35c-14 2 -21.002 6.16699 -21.002 12.5s8.33301 9.83301 25 10.5c116.667 11.333 224.667 60 324 146c74 64 131.667 135.167 173 213.5s62 146.166 62 203.499c0 114 -50 175 -150 183c-14.667 0.666992 -22 4.33398 -22 11.001c0 9.33301 7.66699 14 23 14h9
c53.333 -5.33301 99.333 -29.5 138 -72.5s58 -98.5 58 -166.5c0 -53.333 -13.667 -110.333 -41 -171c-39.333 -86 -111.666 -166.667 -216.999 -242c-117.333 -84.667 -237.666 -132 -360.999 -142z" />
    <glyph glyph-name="asterisk" unicode="*" horiz-adv-x="352" 
d="M301 364c16 0 23.998 -2.33203 23.998 -6.99902c0 -2 -3.33301 -5.16699 -10 -9.5s-16.167 -6.83301 -28.5 -7.5s-21.166 -1.33398 -26.499 -2.00098c-17.333 -0.666992 -32 -1 -44 -1l46 -62c12.667 -16.667 19 -26.667 19 -30c0 -16.667 -29.667 7.33301 -89 72
l-25 -84c-4 -10 -8.33301 -15 -13 -15c-6 0 -9 8.33301 -9 25l14 76l-52 -39c-15.333 -10.667 -26.166 -16 -32.499 -16s-9.5 2.33301 -9.5 7s4 11 12 19l66 48h-63c-26.667 0 -40 4.33301 -40 13c0 6 7.33301 10 22 12l89 4l-37 54c-12 14 -18 24.167 -18 30.5
s2.33301 9.5 7 9.5s11.334 -4 20.001 -12l51 -64l18 74c2 11.333 6 22.333 12 33c1.33301 0.666992 2.33301 1 3 1c4.66699 0 7 -8.33301 7 -25s-4 -45.667 -12 -87l58 40c16 11.333 25.167 17 27.5 17h3.5c5.33301 -2 4.16602 -8.33301 -3.50098 -19s-29.5 -29 -65.5 -55
h79z" />
    <glyph glyph-name="plus" unicode="+" horiz-adv-x="406" 
d="M235 437c7.33301 0 11.002 -9.16895 11.002 -27.502s-5 -68.166 -15 -149.499h17h68.5c29 0 55.5 0.666992 79.5 2c0.666992 -1.33301 1 -2.33301 1 -3c0 -9.33301 -21 -18 -63 -26c-24.667 -3.33301 -61.667 -9 -111 -17c-8.66699 -32.667 -19.667 -65.667 -33 -99
s-24 -50 -32 -50c-6.66699 0 -11.834 3.66699 -15.501 11s-4.5 14 -2.5 20l31 114c-101.333 0 -152 7.66699 -152 23c0 6.66699 2.83301 12.334 8.5 17.001s12.5 7 20.5 7s22.667 0.333008 44 1h93c23.333 69.333 39.666 128.333 48.999 177h1z" />
    <glyph glyph-name="comma" unicode="," horiz-adv-x="194" 
d="M168 29c0 -28 -10.667 -53.166 -32 -75.499s-35.833 -33.5 -43.5 -33.5s-11.5 0.666992 -11.5 2s7.16699 10.166 21.5 26.499s21.5 29.5 21.5 39.5s-4.5 19 -13.5 27s-13.5 14 -13.5 18c0 20 9.66699 30 29 30c10 0 19.5 -3.33301 28.5 -10s13.5 -14.667 13.5 -24z" />
    <glyph glyph-name="hyphen" unicode="-" horiz-adv-x="297" 
d="M105 260l96.999 -1.00098c38.667 0 66.334 1 83.001 3c0.666992 -0.666992 1 -1.66699 1 -3c0 -10 -26.333 -19.667 -79 -29c-28.667 -4 -55.5 -8.16699 -80.5 -12.5s-41 -6.5 -48 -6.5s-18.667 1.5 -35 4.5s-24.5 9.5 -24.5 19.5c0 6.66699 2.83301 12.334 8.5 17.001
s10.5 7 14.5 7s8 0.333008 12 1h26h25z" />
    <glyph glyph-name="period" unicode="." 
d="M154.5 53c9 -6.66699 13.5 -14.168 13.5 -22.501s-4.16699 -15.666 -12.5 -21.999s-17.5 -9.5 -27.5 -9.5s-19.167 3.5 -27.5 10.5s-12.5 15.167 -12.5 24.5c0 19.333 12.667 29 38 29c10 0 19.5 -3.33301 28.5 -10z" />
    <glyph glyph-name="slash" unicode="/" horiz-adv-x="604" 
d="M561 698c7.33301 0 13.166 -2.16895 17.499 -6.50195s6.5 -8.83301 6.5 -13.5s-3 -10.667 -9 -18c-90 -103.333 -193.167 -233.166 -309.5 -389.499s-185.166 -262.5 -206.499 -318.5c-4 -12 -6 -23.5 -6 -34.5s2.66699 -17.667 8 -20s6.33301 -6.16602 3 -11.499
c-4.66699 -6.66699 -11.667 -10 -21 -10c-11.333 0 -17 11 -17 33s7.33301 53 22 93c20.667 56.667 107.667 188 261 394c151.333 201.333 235 302 251 302z" />
    <glyph glyph-name="zero" unicode="0" horiz-adv-x="576" 
d="M628 615c-1.33301 -9.33301 -10 -10.833 -26 -4.5s-28.833 9.5 -38.5 9.5h-16.5c20.667 -6.66699 39.667 -18.334 57 -35.001c37.333 -35.333 56 -79.333 56 -132s-14.667 -106.334 -44 -161.001s-68.666 -103.667 -117.999 -147c-115.333 -102.667 -230 -154 -344 -154
c-13.333 0 -26 1 -38 3c-55.333 7.33301 -83 46.333 -83 117s26 148.334 78 233.001c32 53.333 77.167 105 135.5 155s117.166 88.333 176.499 115c-2.66699 2.66699 -4 5.33398 -4 8.00098c0 8 11 12 33 12c6.66699 0 14.667 -0.333008 24 -1c19.333 6.66699 45 10 77 10
c50 0 75 -9.33301 75 -28zM79 96c0 -50.667 16.333 -77.334 49 -80.001c6.66699 -0.666992 13.334 -1 20.001 -1c90 0 189 47.5 297 142.5s162 196.167 162 303.5c0 50.667 -10.667 84.667 -32 102c-32.667 25.333 -63.334 40.666 -92.001 45.999
c-62 -19.333 -127.333 -61.666 -196 -126.999c-50.667 -49.333 -92.667 -99.666 -126 -150.999c-54.667 -84.667 -82 -163 -82 -235z" />
    <glyph glyph-name="one" unicode="1" horiz-adv-x="349" 
d="M301 79c7.33301 0 11.002 -3.66602 11.002 -10.999c0 -9.33301 -5 -14 -15 -14c-44.667 0 -92.334 -8 -143.001 -24c-24.667 -8.66699 -53.834 -19.667 -87.501 -33s-51.667 -20 -54 -20s-5.16602 2.5 -8.49902 7.5s-5 12 -5 21s3 14.5 9 16.5c18 8 51.667 20.333 101 37
l251 457c-36.667 -22.667 -83.334 -44.667 -140.001 -66c-10 -4 -15 -0.666992 -15 10c0 5.33301 3 9.66602 9 12.999c45.333 16.667 108.333 56.667 189 120l6 10c6.66699 12.667 20.667 19 42 19s32 -5 32 -15c0 -2 -1 -4.66699 -3 -8l-322 -532c45.333 8 93 12 143 12z
" />
    <glyph glyph-name="two" unicode="2" horiz-adv-x="648" 
d="M528 -11c25.333 0 49.668 4.99707 73.001 14.9971c29.333 12 44 29.667 44 53c0 26.667 -20.333 47.334 -61 62.001c-5.33301 2 -8 4.66699 -8 8c0 8.66699 5.66699 11.334 17 8.00098c55.333 -16 83 -42.667 83 -80c0 -31.333 -17 -56.5 -51 -75.5
s-69.833 -28.5 -107.5 -28.5s-84.5 9.66699 -140.5 29l-139 50c-31.333 9.33301 -56.333 14 -75 14c-24 -11.333 -63.333 -26.666 -118 -45.999c-8 -2 -15 -3 -21 -3c-16 0 -24 6 -24 18c0 14.667 8.66699 28.667 26 42c25.333 16.667 62.333 25 111 25
c11.333 0 22.666 -0.333008 33.999 -1c156 94 257.333 159.333 304 196s81.334 69 104.001 97c31.333 37.333 50.333 77.333 57 120c1.33301 8 2 13.667 2 17c0 36 -22.333 54 -67 54s-98.5 -14.333 -161.5 -43s-112.5 -59 -148.5 -91c-2.66699 -2.66699 -5.66699 -4 -9 -4
c-6.66699 0 -10 4 -10 12c0 4.66699 2 8.66699 6 12c46 39.333 107.167 76 183.5 110s143.5 51 201.5 51s87 -23.667 87 -71c0 -52 -31 -109.333 -93 -172c-26.667 -28 -74 -68.833 -142 -122.5s-164 -112.834 -288 -177.501c28.667 -3.33301 79.667 -17.166 153 -41.499
s132.666 -36.5 177.999 -36.5z" />
    <glyph glyph-name="three" unicode="3" horiz-adv-x="718" 
d="M652 612c62.667 0 93.9971 -27.999 93.9971 -83.999v-7c-3.33301 -58 -63 -105 -179 -141c100.667 -10.667 151 -46 151 -106c0 -10 -1.33301 -19.333 -4 -28c-20 -78.667 -79 -142.667 -177 -192c-86 -42.667 -180 -64 -282 -64c-65.333 0 -118.833 10.333 -160.5 31
s-62.5 50.334 -62.5 89.001c0 20.667 7.33301 44.334 22 71.001s44.834 49.667 90.501 69s83.834 29 114.501 29c8 0 12 -2.66699 12 -8c0 -6.66699 -4.66699 -10 -14 -10c-22 0 -50.5 -10.833 -85.5 -32.5s-55.833 -44.167 -62.5 -67.5
c-3.33301 -13.333 -5 -24.666 -5 -33.999c0 -58 39.667 -94 119 -108c20.667 -4 41.667 -6 63 -6c58 0 117.333 14 178 42c93.333 43.333 156.333 105.666 189 186.999c4.66699 11.333 7 22.666 7 33.999c0 26.667 -14 46 -42 58s-61.333 18 -100 18s-71 -5 -97 -15
c-6 -2.66699 -12.333 -4 -19 -4c-12 0 -18 5.66699 -18 17c0 8 2.83301 15 8.5 21s12.5 9 20.5 9c57.333 0 111 9.66699 161 29c64 25.333 100 61 108 107c0.666992 3.33301 1 7.66602 1 12.999c0 28.667 -17.833 43 -53.5 43s-76.167 -8.5 -121.5 -25.5
s-83.666 -35.5 -114.999 -55.5c-3.33301 -2 -5.66602 -3 -6.99902 -3c-4.66699 0 -7 4.33301 -7 13c0 20 6.33301 31.333 19 34c15.333 4.66699 39.666 22.667 72.999 54c4 4 7.66699 5.33301 11 4s5 -3.83301 5 -7.5s-1.5 -6.83398 -4.5 -9.50098s-6.16699 -6 -9.5 -10
c71.333 30.667 131 46 179 46z" />
    <glyph glyph-name="four" unicode="4" horiz-adv-x="568" 
d="M406 204c46.667 -16 82.666 -23.999 107.999 -23.999s45.666 5.66699 60.999 17c19.333 16 29 35.333 29 58c0 7.33301 -1 15.166 -3 23.499s0.333008 12.5 7 12.5s11.667 -3.33301 15 -10c12.667 -22.667 19 -43 19 -61c0 -45.333 -40.667 -68 -122 -68
c-34.667 0 -78 8 -130 24c-25.333 -47.333 -41.333 -98.666 -48 -153.999c-0.666992 -8 -1 -19 -1 -33s4 -28.333 12 -43c1.33301 -4 2 -7 2 -9c0 -12 -5.33301 -18 -16 -18c-7.33301 0 -12.666 2 -15.999 6c-9.33301 20 -14 44 -14 72c0 50.667 15 113.667 45 189
c-51.333 14.667 -96.166 22 -134.499 22s-97.833 -16.667 -178.5 -50c-8 -2.66699 -14.667 -0.666992 -20 6s-8 15 -8 25c0 17.333 7.33301 28.333 22 33c10 4 28.667 8.66699 56 14c36 19.333 90.833 55.333 164.5 108s120.5 85.667 140.5 99c128 80.667 204 139 228 175
l9 14c3.33301 4.66699 9 7 17 7c22.667 0 34 -6.33301 34 -19c0 -0.666992 -59.333 -86.334 -178 -257.001c-38.667 -57.333 -72 -110.333 -100 -159zM230.999 251.001c35.333 0 81 -10.667 137 -32c29.333 64 84.333 153.667 165 269l23 34
c-42 -26 -109.5 -72.333 -202.5 -139l-191.5 -137c27.333 3.33301 50.333 5 69 5z" />
    <glyph glyph-name="five" unicode="5" horiz-adv-x="662" 
d="M748 567c-20 -8.66699 -44.334 -13 -73.001 -13s-71 4.33301 -127 13s-103.833 13 -143.5 13s-71.834 -9.33301 -96.501 -28c-5.33301 -4 -8.66602 -1 -9.99902 9c-1.33301 6.66699 -1.33301 15.5 0 26.5s4.33301 18.167 9 21.5c15.333 11.333 30.333 17.833 45 19.5
s36.167 2.5 64.5 2.5s73.5 -8.66699 135.5 -26s103.833 -26 125.5 -26s42.334 4.83301 62.001 14.5s29.5 22.5 29.5 38.5c0 10 4 15 12 15s12 -8.66699 12 -26c0 -23.333 -15 -41.333 -45 -54zM137.999 -8c-48 0 -88.501 8.66602 -121.501 25.999s-49.5 42.5 -49.5 75.5
s21.667 70.167 65 111.5c6.66699 6.66699 12.667 10 18 10s8 -2.5 8 -7.5s-3.33301 -10.833 -10 -17.5c-24 -22.667 -36 -47 -36 -73s15.333 -48.333 46 -67s66.667 -28 108 -28c79.333 0 160.5 28.833 243.5 86.5s132.167 123.834 147.5 198.501c1.33301 9.33301 2 16 2 20
c0 33.333 -20.667 58.666 -62 75.999c-28.667 10 -58.667 15 -90 15c-46 0 -89 -9.66699 -129 -29l-105 -51c-1.33301 -0.666992 -3.33301 -1 -6 -1c-6 0 -9 4.5 -9 13.5s4.33301 15.5 13 19.5l118 149c6 7.33301 18.333 11 37 11s28 -2 28 -6
c0 -1.33301 -0.666992 -2.66602 -2 -3.99902l-116 -126c85.333 34 146.333 51 183 51c142.667 0 214 -35.333 214 -106c0 -11.333 -2 -23.333 -6 -36c-27.333 -86 -87.666 -158.333 -180.999 -217c-100 -62.667 -202.667 -94 -308 -94z" />
    <glyph glyph-name="six" unicode="6" horiz-adv-x="612" 
d="M599 601l92 5.00391c14.667 0 27.334 -3.33301 38.001 -10s16 -14.167 16 -22.5s-3.66699 -13.166 -11 -14.499c-102.667 -20 -223.667 -64 -363 -132c-64 -30.667 -124.667 -75.667 -182 -135c-69.333 -70.667 -104 -135.334 -104 -194.001
c0 -60.667 41.667 -91 125 -91c46 0 104.667 10.667 176 32c32.667 10 65.667 28.167 99 54.5s50 54.166 50 83.499c0 23.333 -15.333 35 -46 35c-47.333 0 -97.5 -15.167 -150.5 -45.5s-83.833 -69.833 -92.5 -118.5c-2 -12.667 -7.66699 -19 -17 -19
c-8 0 -11 5.66699 -9 17c10.667 61.333 44.667 110 102 146c58.667 36.667 118.667 55 180 55s92 -22.667 92 -68c0 -35.333 -20.667 -69.666 -62 -102.999c-33.333 -25.333 -70.333 -44.333 -111 -57c-83.333 -25.333 -153 -38 -209 -38s-97 11.167 -123 33.5
s-39 51.166 -39 86.499c0 57.333 27.5 120.666 82.5 189.999s124.5 126.666 208.5 171.999c103.333 56 187.666 95 252.999 117c-10.667 2.66699 -17.167 4.5 -19.5 5.5s-3.16602 2.83301 -2.49902 5.5c1.33301 2.66699 5.16602 5.16699 11.499 7.5
s11.5 3.16602 15.5 2.49902z" />
    <glyph glyph-name="seven" unicode="7" horiz-adv-x="494" 
d="M149 14c0 -4.66699 0.666016 -10.333 1.99902 -17c0.666992 -8 -3.33301 -12 -12 -12c-10.667 0 -16.334 6 -17.001 18c-0.666992 3.33301 -1 9 -1 17c0 70.667 44.833 156.667 134.5 258s197.167 201.333 322.5 300c-106.667 14.667 -183 22 -229 22
s-83.333 -6 -112 -18c-38 -16.667 -64.333 -47 -79 -91c-5.33301 -13.333 -13.166 -20 -23.499 -20s-17.333 2.16699 -21 6.5s-5.5 8.16602 -5.5 11.499c0 6 1.33301 13.333 4 22l18 36c6.66699 14 10 26 10 36c0 20.667 3.33301 30.334 10 29.001
c5.33301 -4 8 -14.333 8 -31c46.667 42 109.334 63 188.001 63c34 0 78.5 -6.5 133.5 -19.5s96.833 -21.5 125.5 -25.5l51 38c2 1.33301 5.16699 2 9.5 2s10.833 -4.5 19.5 -13.5s13 -15.667 13 -20s-1.66699 -7.5 -5 -9.5c-160 -116 -295 -228.333 -405 -337
c-32.667 -32.667 -64 -73.167 -94 -121.5s-45 -89.5 -45 -123.5z" />
    <glyph glyph-name="eight" unicode="8" horiz-adv-x="608" 
d="M515 370c48.667 -30.667 73.001 -66.666 73.001 -107.999s-25.667 -83.666 -77 -126.999s-112.833 -79.666 -184.5 -108.999s-135.667 -44 -192 -44s-93.833 11 -112.5 33c-14 16 -21 35 -21 57c0 40 20.333 81.667 61 125c76 82.667 165.667 150.667 269 204
c-41.333 25.333 -62 49.666 -62 72.999c0 7.33301 1.33301 14 4 20c14.667 40 46.834 72.667 96.501 98s96.167 38 139.5 38s76.666 -6.66699 99.999 -20c18 -10.667 27 -24 27 -40s-6 -32.333 -18 -49l84 27c5.33301 1.33301 9.33301 0.666016 12 -2.00098s4 -6 4 -10
c0 -12.667 -9.66699 -21.334 -29 -26.001c-78.667 -17.333 -167.334 -49 -266.001 -95c40 -16.667 70.667 -31.667 92 -45zM587.001 586.001c-26 9.33301 -52.667 14 -80 14c-47.333 0 -88.333 -10.667 -123 -32s-52 -44.666 -52 -69.999c0 -28 20.667 -51.333 62 -70
c47.333 22.667 111 50 191 82c14 27.333 21 45.666 21 54.999s-6.33301 16.333 -19 21zM56.001 66.001c0 -43.333 27.001 -65 81.001 -65c43.333 0 95 12.333 155 37c159.333 65.333 239 132 239 200c0 40 -28.667 74.667 -86 104l-86 44
c-58.667 -33.333 -119.334 -78.333 -182.001 -135c-80.667 -74 -121 -135.667 -121 -185z" />
    <glyph glyph-name="nine" unicode="9" horiz-adv-x="440" 
d="M134 313c-39.333 0 -59 15.9971 -59 47.9971c0 56.667 35.667 107.667 107 153c57.333 36 125.166 63.667 203.499 83s143.5 29 195.5 29h16c4.66699 0 6.66699 -3.16699 6 -9.5s-4 -13.666 -10 -21.999s-13.5 -12.166 -22.5 -11.499s-20.167 1 -33.5 1
c-82.667 0 -167.667 -19.333 -255 -58c-104 -46 -157.667 -97 -161 -153c-1.33301 -22 9.33398 -33 32.001 -33c44.667 0 118 32.667 220 98c66 42 128.667 87 188 135c2.66699 2.66699 8.66699 4 18 4c28 0 42 -7 42 -21c0 -5.33301 -3 -10.333 -9 -15l-110 -97
c-226.667 -209.333 -340 -387.666 -340 -534.999c0 -26 5 -40.667 15 -44c10 -4 11.667 -8.33301 5 -13c-2.66699 -2.66699 -6.16699 -4 -10.5 -4h-10.5c-27.333 3.33301 -41 23.666 -41 60.999c0 70.667 34.167 158.834 102.5 264.501s145.5 200.5 231.5 284.5
c-139.333 -96.667 -246 -145 -320 -145z" />
    <glyph glyph-name="colon" unicode=":" 
d="M194.5 247c9 -6.66699 13.5 -14.168 13.5 -22.501s-4.16699 -15.666 -12.5 -21.999s-17.5 -9.5 -27.5 -9.5s-19.167 3.5 -27.5 10.5s-12.5 15.167 -12.5 24.5c0 19.333 12.667 29 38 29c10 0 19.5 -3.33301 28.5 -10zM154.5 52.999c9 -6.66699 13.5 -14.168 13.5 -22.501
s-4.16699 -15.666 -12.5 -21.999s-17.5 -9.5 -27.5 -9.5s-19.167 3.5 -27.5 10.5s-12.5 15.167 -12.5 24.5c0 19.333 12.667 29 38 29c10 0 19.5 -3.33301 28.5 -10z" />
    <glyph glyph-name="semicolon" unicode=";" 
d="M194.5 247c9 -6.66699 13.5 -14.168 13.5 -22.501s-4.16699 -15.666 -12.5 -21.999s-17.5 -9.5 -27.5 -9.5s-19.167 3.5 -27.5 10.5s-12.5 15.167 -12.5 24.5c0 19.333 12.667 29 38 29c10 0 19.5 -3.33301 28.5 -10zM168 28.999c0 -28 -10.667 -53.166 -32 -75.499
s-35.833 -33.5 -43.5 -33.5s-11.5 0.666992 -11.5 2s7.16699 10.166 21.5 26.499s21.5 29.5 21.5 39.5s-4.5 19 -13.5 27s-13.5 14 -13.5 18c0 20 9.66699 30 29 30c10 0 19.5 -3.33301 28.5 -10s13.5 -14.667 13.5 -24z" />
    <glyph glyph-name="less" unicode="&#x3c;" horiz-adv-x="318" 
d="M85 256c0 9.33301 17.333 37.668 52 85.001l66 90c5.33301 7.33301 11 11 17 11s9 -2 9 -6c0 -10 -33 -61 -99 -153c64.667 -82.667 97 -127.834 97 -135.501s-3.33301 -11.5 -10 -11.5l-8 4c-22.667 32 -63 68.667 -121 110c-2 1.33301 -3 3.33301 -3 6z" />
    <glyph glyph-name="equal" unicode="=" horiz-adv-x="406" 
d="M195 381l130.999 -1c42 0 76.333 0.666992 103 2c0.666992 -0.666992 1 -1.66699 1 -3c0 -9.33301 -26.333 -18.666 -79 -27.999l-111 -18c-4.66699 -1.33301 -14.667 -2 -30 -2s-45.5 1.5 -90.5 4.5s-67.5 9.5 -67.5 19.5c0 7.33301 2.83301 13.166 8.5 17.499
s10.834 6.5 15.501 6.5h14c36 1.33301 71 2 105 2zM209.999 260l103.999 -1.00098c38 0 65.333 1 82 3c0.666992 -1.33301 1 -2.83301 1 -4.5s-2.33301 -4.16699 -7 -7.5c-11.333 -6.66699 -33.166 -12.667 -65.499 -18l-88 -14.5c-26.333 -4.33301 -47.333 -6.5 -63 -6.5
s-37.834 1 -66.501 3c-58.667 4 -88 11 -88 21c0 6.66699 2.83301 12.334 8.5 17.001s10.834 7 15.501 7h15l25 1h80h47z" />
    <glyph glyph-name="greater" unicode="&#x3e;" horiz-adv-x="318" 
d="M229 315c0 -13.333 -39.667 -71.666 -119 -174.999c-5.33301 -7.33301 -10.833 -11 -16.5 -11s-8.5 2 -8.5 6c0 10 33 61 99 153c-65.333 83.333 -98 128.666 -98 135.999s3.66699 11 11 11l8 -4c24 -32 64.333 -68.667 121 -110c2 -0.666992 3 -2.66699 3 -6z" />
    <glyph glyph-name="question" unicode="?" horiz-adv-x="401" 
d="M166 129c-6 -10.667 -11.165 -16 -15.498 -16s-6.5 2.83301 -6.5 8.5s0.666992 10.5 2 14.5c17.333 35.333 46.666 66.333 87.999 93c60 38.667 96.667 63.667 110 75c28.667 26 43 49.667 43 71s-12.167 38.666 -36.5 51.999s-55 20 -92 20s-70.667 -8.66699 -101 -26
s-47.5 -42.666 -51.5 -75.999c-1.33301 -8.66699 2.16699 -16.834 10.5 -24.501s20.333 -11.5 36 -11.5s33.167 10 52.5 30c2 2 4 3 6 3s3 -2.16699 3 -6.5s-1.66699 -8.16602 -5 -11.499c-20.667 -22.667 -44.334 -34 -71.001 -34c-16.667 0 -30.167 5.16699 -40.5 15.5
s-15.5 22.5 -15.5 36.5v5c4 44.667 25.833 79.334 65.5 104.001s80.5 37 122.5 37c110.667 0 166 -31.667 166 -95c0 -40.667 -18 -75 -54 -103c-8 -6 -48 -30 -120 -72c-46.667 -26.667 -78.667 -56.334 -96 -89.001zM153.502 48.5c9 -6.33301 13.5 -13.668 13.5 -22.001
s-4.33301 -15.666 -13 -21.999s-18 -9.5 -28 -9.5s-19 3.5 -27 10.5s-12 15.167 -12 24.5c0 18.667 12.667 28 38 28c10 0 19.5 -3.16699 28.5 -9.5z" />
    <glyph glyph-name="at" unicode="@" horiz-adv-x="842" 
d="M802 439c0 -83.333 -42.666 -162.667 -127.999 -238c-130.667 -116.667 -277.667 -175 -441 -175c-18 0 -32 0.333008 -42 1c-52.667 3.33301 -95.334 21 -128.001 53s-49 73.5 -49 124.5s13.667 106.5 41 166.5c34.667 75.333 103 149.333 205 222
c114.667 82 234 123 358 123c66 0 116.333 -12.5 151 -37.5s52 -57.167 52 -96.5c0 -23.333 -4.5 -44 -13.5 -62s-13.167 -27.333 -12.5 -28c4.66699 -16 7 -33.667 7 -53zM514.001 482.999l14.0059 3.00195c7.33301 0 14.166 -3 20.499 -9s9.66602 -11.333 9.99902 -16
s-6.16699 -16.834 -19.5 -36.501l-64 -91.5c-26 -42.667 -39 -73.5 -39 -92.5s8 -28.5 24 -28.5c23.333 0 64 26.5 122 79.5s110.667 108.167 158 165.5v2c-4.66699 36 -21.334 67 -50.001 93c-46 40.667 -101.667 61 -167 61c-44 1.33301 -69.333 3 -76 5
c-0.666992 2 -0.333984 3.33301 0.999023 4c31.333 10.667 61.333 16 90 16s60.667 -4.33301 96 -13c68 -16 116.333 -48.333 145 -97c2 -2.66699 3.33301 -2.66699 4 0c5.33301 16 8 32.833 8 50.5s-7.33301 36.834 -22 57.501c-28 40 -80.167 60 -156.5 60
s-157.833 -25.333 -244.5 -76s-158.334 -115.167 -215.001 -193.5s-85 -159.833 -85 -244.5s44.333 -129.334 133 -134.001c10 -0.666992 20 -1 30 -1c131.333 0 255.666 52.333 372.999 157c81.333 73.333 127 142.666 137 207.999c-1.33301 1.33301 -2.66602 2 -3.99902 2
l-122 -135c-61.333 -59.333 -111.666 -89 -150.999 -89c-10 0 -18.667 1.33301 -26 4c-29.333 11.333 -44 33.333 -44 66c0 5.33301 0.666992 14 2 26c-1.33301 1.33301 -2.66602 2 -3.99902 2c-73.333 -70 -121 -105 -143 -105c-16.667 0 -32.334 5.33301 -47.001 16
c-19.333 12 -29 29.667 -29 53c0 48.667 34.167 106.167 102.5 172.5s130.5 99.5 186.5 99.5c25.333 0 40.666 -9.66699 45.999 -29l2 -6v-2c1.33301 -2.66699 2.66602 -4 3.99902 -4zM215.007 239.001c0 -22.667 8.33398 -34 25.001 -34c33.333 0 79.666 34 138.999 102
c14.667 16 39.167 47.833 73.5 95.5l51.5 71.5l-1 1c-4.66699 8 -12.667 12 -24 12c-42 0 -96.5 -31.167 -163.5 -93.5s-100.5 -113.833 -100.5 -154.5z" />
    <glyph glyph-name="A" unicode="A" horiz-adv-x="1020" 
d="M946 286l96.998 1.99902c24 0 36 -1.66699 36 -5c0 -8.66699 -48.667 -16.334 -146 -23.001c-62 -121.333 -93 -204 -93 -248c0 -30.667 9.66699 -46 29 -46c7.33301 0 16.5 4.5 27.5 13.5s17.667 13.5 20 13.5s3.5 -1.66699 3.5 -5c-3.33301 -12 -13.5 -22 -30.5 -30
s-31.333 -12 -43 -12s-20.834 0.666992 -27.501 2c-16 6 -24 25.333 -24 58c0 67.333 25.667 153 77 257l-120 -3c-89.333 -87.333 -179 -164 -269 -230c-134.667 -98 -240 -147 -316 -147c-4.66699 0 -9.33398 0.333008 -14.001 1
c-102.667 8.66699 -154 61.334 -154 158.001c0 57.333 18 118 54 182c48 85.333 113.667 158.166 197 218.499s158 90.5 224 90.5s99 -24.333 99 -73c0 -32.667 -10 -69 -30 -109s-40.333 -65.333 -61 -76c-2 -0.666992 -4.16699 -1 -6.5 -1s-3.5 0.666992 -3.5 2l33 54
c22.667 35.333 34 66.333 34 93s-5.83301 48.167 -17.5 64.5s-30.167 24.5 -55.5 24.5c-52 0 -114.167 -29 -186.5 -87s-127.333 -129.333 -165 -214s-56.5 -150.667 -56.5 -198c0 -71.333 36.333 -107 109 -107c69.333 0 163.333 44.667 282 134
c52.667 39.333 138.334 113.666 257.001 222.999c-23.333 -1.33301 -45 -3.66602 -65 -6.99902c-42.667 -8 -62.667 -6.66699 -60 4c2.66699 24.667 15.334 37 38.001 37c44 -5.33301 81 -8 111 -8c57.333 52.667 143 139 257 259c76.667 80.667 123.334 121 140.001 121
c7.33301 0 11 -5.66699 11 -17s-3 -29 -9 -53s-12.667 -38.667 -20 -44c-15.333 -10.667 -29.666 -25.167 -42.999 -43.5s-32.333 -52.666 -57 -102.999s-45.667 -91.166 -63 -122.499zM1026 529.999l-255.999 -240h59c14 -0.666992 31.333 -1 52 -1
c19.333 38 67.666 118.333 144.999 241z" />
    <glyph glyph-name="B" unicode="B" horiz-adv-x="819" 
d="M770 189c0 -24 -5.33398 -46.666 -16.001 -67.999c-22.667 -48 -66 -88 -130 -120s-130.667 -48 -200 -48c-105.333 0 -177 36 -215 108c-68.667 -57.333 -117.667 -86 -147 -86c-5.33301 0 -10 1 -14 3c-20 10.667 -30 33.667 -30 69s14.667 78.666 44 129.999
s55 81.666 77 90.999c10 3.33301 17.667 5 23 5c19.333 0 34 -16 44 -48l30 -96c19.333 20.667 45.666 53.667 78.999 99l89 120c109.333 142 181 219.667 215 233c12 4.66699 24.333 7 37 7s23.167 -2.66699 31.5 -8s12.5 -12 12.5 -20c0 -12 -9.66699 -19 -29 -21
c-20 -11.333 -58.167 -44.5 -114.5 -99.5s-89.833 -89.833 -100.5 -104.5c-74.667 -104 -143.667 -184 -207 -240c40.667 -80.667 101.667 -121 183 -121c49.333 0 98.333 15.5 147 46.5s85 69.167 109 114.5c10.667 19.333 16 41 16 65s-9.5 46.833 -28.5 68.5
s-42.833 37.5 -71.5 47.5c-13.333 2 -34.666 4.83301 -63.999 8.5s-44 9.83398 -44 18.501c0 3.33301 1.33301 6.33301 4 9c8 9.33301 18.333 14 31 14c7.33301 0 14.5 -1.33301 21.5 -4s12.5 -4.66699 16.5 -6s8.66699 -3 14 -5c14.667 -1.33301 27.334 -2 38.001 -2
c44 0 84 7 120 21c46 18 75.333 45 88 81c8 23.333 12 44.333 12 63c0 46 -22.333 80.333 -67 103c-38.667 20 -91.667 30 -159 30c-106 0 -201 -20 -285 -60c-42.667 -20 -83.167 -49.667 -121.5 -89s-57.5 -73 -57.5 -101c0 -19.333 5 -35.333 15 -48
c4 -5.33301 11 -12 21 -20c3.33301 -2 1.33301 -3 -6 -3c-41.333 9.33301 -62 37 -62 83s23.333 89.333 70 130c34.667 30 73.667 54.333 117 73c90 38.667 192.333 58 307 58c82 0 147.333 -12 196 -36c56.667 -26.667 85 -67 85 -121c0 -21.333 -4.33301 -43 -13 -65
c-14 -40 -50.333 -70.333 -109 -91c-44 -15.333 -91.333 -23.333 -142 -24c39.333 -2 72.5 -16.5 99.5 -43.5s40.5 -60.5 40.5 -100.5zM130.999 226.001c-0.666992 0 -2.33301 -0.667969 -5 -2.00098c-49.333 -71.333 -74 -128.666 -74 -171.999
c0 -18 4.33301 -34.333 13 -49c2 -3.33301 5.33301 -5 10 -5c21.333 0 62.333 30.333 123 91l-3 4c-26.667 88.667 -48 133 -64 133z" />
    <glyph glyph-name="C" unicode="C" horiz-adv-x="726" 
d="M541 278c-40 0 -73.665 9.16699 -100.998 27.5s-41 41.5 -41 69.5c0 35.333 23 70.666 69 105.999c8 6 14 9 18 9s6 -1.33301 6 -4c0 -6.66699 -5.33301 -12 -16 -16c-37.333 -30 -56 -60.333 -56 -91c0 -22 10 -40.5 30 -55.5s45 -22.5 75 -22.5
c65.333 0 127 31.333 185 94c30 32.667 45 70.334 45 113.001s-16 74.334 -48 95.001c-26.667 18.667 -62.667 28 -108 28c-65.333 0 -131 -16.333 -197 -49c-81.333 -39.333 -154.833 -100.5 -220.5 -183.5s-98.5 -162.833 -98.5 -239.5c0 -60.667 20.667 -107.5 62 -140.5
s92.666 -49.5 153.999 -49.5c70 0 138.667 17 206 51c51.333 26.667 95.666 60.667 132.999 102c10.667 12 19 18 25 18c4 0 6 -3.5 6 -10.5s-3.66699 -14.167 -11 -21.5c-35.333 -37.333 -86.333 -73.333 -153 -108c-82 -43.333 -164.5 -65 -247.5 -65
s-144.833 27.333 -185.5 82c-27.333 36 -41 79 -41 129c0 22 2.66699 45.667 8 71c18 85.333 65.333 168.333 142 249c55.333 58 121 103.167 197 135.5s148 48.5 216 48.5c36 0 67.333 -4.33301 94 -13c72.667 -22.667 109 -68.334 109 -137.001
c0 -42 -12.333 -78.333 -37 -109c-61.333 -75.333 -134.333 -113 -219 -113z" />
    <glyph glyph-name="D" unicode="D" horiz-adv-x="921" 
d="M187 25c-58.667 -45.333 -101.668 -67.999 -129.001 -67.999c-14.667 0 -25.5 7.16699 -32.5 21.5s-10.5 29.833 -10.5 46.5c0 32 13.5 80 40.5 144s52.833 96 77.5 96c12.667 0 23.5 -25 32.5 -75s18.167 -86.333 27.5 -109c45.333 48 111 128 197 240
c108 142 179.667 219.667 215 233c12 4.66699 24.333 7 37 7s23.167 -2.66699 31.5 -8s12.5 -12 12.5 -20c0 -11.333 -9.66699 -18 -29 -20c-23.333 -12.667 -59.333 -43.334 -108 -92.001c-48.667 -47.333 -87.667 -91.666 -117 -132.999
c-71.333 -99.333 -144.666 -180.333 -219.999 -243c37.333 -55.333 96 -83 176 -83c8.66699 0 21.667 0.666992 39 2c185.333 17.333 316.666 97.666 393.999 240.999c31.333 57.333 47 114 47 170s-20.333 106.333 -61 151c-32.667 36.667 -68.167 59.334 -106.5 68.001
s-77.5 13 -117.5 13c-102.667 0 -197.334 -23.667 -284.001 -71c-91.333 -50 -137 -106 -137 -168c0 -16.667 4.5 -30.334 13.5 -41.001s15.167 -16.667 18.5 -18h-6c-17.333 3.33301 -32.666 12 -45.999 26c-14.667 17.333 -22 35.666 -22 54.999
c0 66.667 41.833 124 125.5 172s181.834 72 294.501 72c52 0 105.333 -6 160 -18s104.334 -40.667 149.001 -86c51.333 -53.333 77 -113.666 77 -180.999c0 -50 -14.667 -101.667 -44 -155c-50.667 -92 -126.334 -159.333 -227.001 -202c-80.667 -34 -167.667 -51 -261 -51
s-162.333 28 -207 84zM50.999 29.001c0 -20.667 3.99902 -38.667 11.999 -54c28.667 12.667 63.334 39 104.001 79c-19.333 32 -31.5 57.167 -36.5 75.5s-8.5 42.5 -10.5 72.5c-46 -66 -69 -123.667 -69 -173zM193.998 309.001c0.666992 0 1.33301 0.333008 2 1
c0 -1.33301 -0.166992 -2 -0.5 -2s-0.833008 0.333008 -1.5 1z" />
    <glyph glyph-name="E" unicode="E" horiz-adv-x="691" 
d="M504 407c65.333 0 98.001 -12.3311 98.001 -36.998c0 -5.33301 -2 -11.333 -6 -18c-16 -24.667 -45 -37 -87 -37c-27.333 0 -55.333 4.83301 -84 14.5s-50.334 19.834 -65.001 30.501c-62 -18 -117.167 -45.667 -165.5 -83s-84.5 -79.666 -108.5 -126.999
c-12.667 -25.333 -19 -50 -19 -74c0 -37.333 15.5 -67.666 46.5 -90.999s76.5 -35 136.5 -35c16.667 0 34 1 52 3c106 11.333 190.333 45.333 253 102c52.667 46.667 79 95.667 79 147c0 40.667 -19.667 61 -59 61c-47.333 0 -101.666 -25.333 -162.999 -76
c-15.333 -12.667 -28.333 -28.667 -39 -48s-16 -38.333 -16 -57s9.33301 -30.334 28 -35.001c6.66699 -2.66699 10 -6 10 -10c0 -6.66699 -6.66699 -9.33398 -20 -8.00098c-32 0.666992 -48 21.667 -48 63s21 80 63 116c57.333 49.333 118 74 182 74c48 0 78.333 -15 91 -45
c5.33301 -14 8 -28 8 -42c0 -62 -34.333 -120.333 -103 -175c-82 -66.667 -186 -100 -312 -100c-78 0 -139.667 14.5 -185 43.5s-68 66.833 -68 113.5c0 27.333 8.66699 54.666 26 81.999c61.333 97.333 166 169.666 314 216.999c-22 25.333 -33 52.333 -33 81
s7 52.667 21 72c27.333 37.333 68.333 68 123 92c65.333 28.667 130.666 43 195.999 43c38 0 68.5 -6.16699 91.5 -18.5s34.5 -31.333 34.5 -57s-9.5 -47.334 -28.5 -65.001s-38.833 -26.5 -59.5 -26.5s-31 5 -31 15c0 6 4.33301 9 13 9l20 -3
c13.333 0 25.5 7.16699 36.5 21.5s16.5 29.166 16.5 44.499c0 22.667 -13 39.334 -39 50.001c-16.667 6.66699 -32.334 10 -47.001 10s-25 -0.333008 -31 -1c-57.333 -3.33301 -113.333 -23.333 -168 -60c-64 -42 -96 -89.333 -96 -142c0 -19.333 6.66699 -37.333 20 -54
c42.667 13.333 83.334 20 122.001 20zM399.001 371.002c28.667 -22.667 61.667 -34 99 -34s56 10.333 56 31c0 9.33301 -16.667 14 -50 14s-68.333 -3.66699 -105 -11z" />
    <glyph glyph-name="F" unicode="F" horiz-adv-x="632" 
d="M528 251c64.667 -2 98.832 -2.99805 102.499 -2.99805h6.5c16 1.33301 24 -1 24 -7c0 -9.33301 -13 -14 -39 -14l-85 2c-17.333 -1.33301 -27.666 -3 -30.999 -5c-28 -34.667 -65.667 -84.834 -113 -150.501s-71 -104.834 -71 -117.501c0 -5.33301 6 -4 18 4
c7.33301 0 11 -1 11 -3c0 -3.33301 -7.33301 -8.33301 -22 -15l-28 -15c-12.667 -10.667 -27.167 -16 -43.5 -16s-23.833 4 -22.5 12c0.666992 16 24.334 56.5 71.001 121.5s95 126.833 145 185.5c-48 -8.66699 -84.667 -13 -110 -13
c-2.66699 0.666992 -4 2.83398 -4 6.50098s4 8.83398 12 15.501s16.5 10 25.5 10s23.5 0.333008 43.5 1h51l151 212c32 46 48 84 48 114c0 46.667 -34.667 70 -104 70c-54 0 -117.5 -15 -190.5 -45s-140.167 -71 -201.5 -123c-43.333 -36 -77.666 -75 -102.999 -117
s-38 -79.333 -38 -112c0 -52.667 31.333 -79 94 -79c5.33301 0 11 0.333008 17 1c40.667 3.33301 79.167 26.5 115.5 69.5s54.5 79.167 54.5 108.5c0 2.66699 -0.333008 5.66699 -1 9c17.333 -3.33301 26 -13.666 26 -30.999c0 -28.667 -18.667 -62.334 -56 -101.001
c-50.667 -52.667 -109.334 -79 -176.001 -79c-36.667 0 -65.334 9.66699 -86.001 29s-31 45.666 -31 78.999c0 78.667 48 158 144 238c69.333 56.667 143 99.5 221 128.5s145.833 43.5 203.5 43.5s100.667 -8.33301 129 -25s42.5 -39.834 42.5 -69.501
s-13 -63.167 -39 -100.5c-15.333 -24.667 -69 -97.667 -161 -219z" />
    <glyph glyph-name="G" unicode="G" horiz-adv-x="828" 
d="M548 487l-2.00391 -32.001c0 -43.333 23.333 -65 70 -65c38.667 0 77.667 13.333 117 40s59 53.667 59 81s-16 50.333 -48 69c-21.333 12.667 -54.666 19 -99.999 19c-67.333 0 -142.5 -16 -225.5 -48s-160.833 -83.333 -233.5 -154c-95.333 -93.333 -143 -179 -143 -257
c0 -46 17.5 -83 52.5 -111s80.833 -42 137.5 -42c78.667 0 170 29.667 274 89c86.667 48.667 151.667 100.334 195 155.001l29 43c-12 0 -61.667 -3.5 -149 -10.5s-137.333 -12 -150 -15s-23 -4.5 -31 -4.5c-22 0 -33 5.33301 -33 16c0 16.667 25.333 30.5 76 41.5
s136.334 16.5 257.001 16.5s200.334 -4.66699 239.001 -14c6 -1.33301 9 -3 9 -5c0 -7.33301 -23 -12.666 -69 -15.999c-57.333 -4.66699 -86.666 -7 -87.999 -7c-68 -89.333 -156 -227.333 -264 -414c-6 -10.667 -11.833 -16 -17.5 -16s-8.5 4.33301 -8.5 13
c0 23.333 18.667 68.333 56 135l70 131c-42.667 -36.667 -97 -71 -163 -103c-86 -40.667 -167.167 -61 -243.5 -61s-134.666 16.5 -174.999 49.5s-60.5 77.167 -60.5 132.5c0 102 61.667 205.667 185 311c62 53.333 137 97.666 225 132.999s165.167 53 231.5 53
s117.166 -13 152.499 -39c27.333 -21.333 41 -45.333 41 -72c0 -38 -23.5 -74.5 -70.5 -109.5s-93.5 -52.5 -139.5 -52.5c-62 0 -93 35.667 -93 107c0 27.333 5.66699 41 17 41c9.33301 0 14 -9.33301 14 -28z" />
    <glyph glyph-name="H" unicode="H" horiz-adv-x="951" 
d="M283 -46c0 18.667 38.334 90.9961 115.001 216.996c-54.667 0 -91 -2.33301 -109 -7c-30 -7.33301 -52.333 -22.333 -67 -45c-5.33301 -7.33301 -9.83301 -11.333 -13.5 -12s-5.5 0.833008 -5.5 4.5s1.33301 6.83398 4 9.50098c25.333 34 50.333 57.333 75 70
s63.667 19 117 19h24c40.667 62 97.667 154 171 276c27.333 51.333 41 93 41 125c0 51.333 -31.333 77.333 -94 78h-11c-85.333 0 -163 -21.333 -233 -64s-125.333 -95.667 -166 -159s-61 -120.333 -61 -171c0 -62 29 -93 87 -93c46 0 85.333 20.333 118 61
s49 79.334 49 116.001c0 20.667 -5.33301 37.667 -16 51c-1.33301 1.33301 -2 3 -2 5c0 4.66699 2.66699 7 8 7c2.66699 0 4.66699 -1 6 -3c13.333 -17.333 20 -38 20 -62c0 -40.667 -16.667 -82.167 -50 -124.5s-68.333 -65.833 -105 -70.5c-11.333 -2 -22.333 -3 -33 -3
c-42.667 0 -75.667 13.667 -99 41c-22.667 24.667 -34 58 -34 100c0 17.333 2 35 6 53c20 90 77.833 168.667 173.5 236s203.167 101 322.5 101c46 0 85.5 -9.83301 118.5 -29.5s49.5 -47.167 49.5 -82.5s-12.333 -72.666 -37 -111.999l-181 -278
c21.333 -0.666992 59.5 -3.83398 114.5 -9.50098s96.333 -8.5 124 -8.5s46.167 0.333008 55.5 1l38 63c64.667 108.667 139.5 210.167 224.5 304.5s159.167 152.833 222.5 175.5c2 0.666992 4 1 6 1c4.66699 0 7 -2.66699 7 -8c0 -2 -1 -3.66699 -3 -5
c-42.667 -24 -103.834 -82.167 -183.501 -174.5s-148.5 -187.166 -206.5 -284.499l-39 -66c30.667 4 52.667 11.667 66 23c2.66699 2 5 0.833008 7 -3.5s1.66699 -7.5 -1 -9.5c-20 -15.333 -48.333 -26.333 -85 -33c-46.667 -86.667 -70 -147.667 -70 -183
c0 -22.667 9.66699 -34 29 -34c13.333 0 28.833 4.5 46.5 13.5s29.5 16.667 35.5 23s9.66699 9.5 11 9.5s1.66602 -2.16699 0.999023 -6.5s-2 -7.83301 -4 -10.5c-11.333 -10.667 -28.333 -22 -51 -34s-41 -18 -55 -18s-24.333 2.33301 -31 7c-21.333 14 -32 38.333 -32 73
s17.667 85.334 53 152.001c-24.667 -2 -47.667 -3 -69 -3c-7.33301 0 -85.666 2.33301 -234.999 7c-47.333 -74.667 -85.333 -142.667 -114 -204c-8.66699 -18 -19.167 -27 -31.5 -27s-18.5 5 -18.5 15z" />
    <glyph glyph-name="I" unicode="I" horiz-adv-x="576" 
d="M714 396l-7.00195 26.999c0 5.33301 2.66699 8 8 8c2 0 4.66699 -1 8 -3c15.333 -11.333 23 -26.333 23 -45s-12 -36.834 -36 -54.501s-54.333 -26.5 -91 -26.5c-11.333 0 -22.666 1 -33.999 3c-46 -84.667 -102 -162.667 -168 -234c-88 -93.333 -168 -140 -240 -140
c-104 0 -156 61.333 -156 184c0 101.333 27 183 81 245c45.333 53.333 97.333 80 156 80c15.333 0 31 -2.66699 47 -8c39.333 -15.333 59 -47.833 59 -97.5s-20.333 -101.5 -61 -155.5s-82.334 -81 -125.001 -81c-48 0 -72 26 -72 78c0 14.667 3.16699 30 9.5 46
s13.5 24 21.5 24c6 0 9 -3 9 -9c0 -3.33301 -3 -11.666 -9 -24.999s-9 -25.166 -9 -35.499s5.5 -20 16.5 -29s22.5 -13.5 34.5 -13.5c39.333 0 75.833 24.167 109.5 72.5s50.5 95.5 50.5 141.5c0 35.333 -12.667 58.666 -38 69.999c-8.66699 3.33301 -17.667 5 -27 5
c-47.333 0 -94.666 -32.667 -141.999 -98c-46 -66 -69 -138.333 -69 -217c0 -43.333 9.33301 -78.666 28 -105.999c19.333 -28 46 -42 80 -42c88 0 202.667 119.667 344 359c-73.333 22 -110 65.333 -110 130c0 86 43.667 154.667 131 206c55.333 32 109 48 161 48
c40.667 0 77.334 -6.66699 110.001 -20c46 -18 69 -45.333 69 -82c0 -8 -1.83301 -15.667 -5.5 -23s-7.5 -11 -11.5 -11c-8.66699 8.66699 -19 13 -31 13c-56.667 0 -134.334 -84.333 -233.001 -253c5.33301 -0.666992 11 -1 17 -1c22.667 0 45.334 6.66699 68.001 20
s34 30 34 50zM603.498 645.499c-44.333 -19.667 -79.667 -48.5 -106 -86.5s-39.5 -81 -39.5 -129s24.667 -76.667 74 -86c36.667 60 84 119.833 142 179.5s106.333 89.5 145 89.5c10 0 18.667 -2.33301 26 -7c-0.666992 18.667 -13.667 35 -39 49
c-22.667 13.333 -51 20 -85 20s-73.167 -9.83301 -117.5 -29.5z" />
    <glyph glyph-name="J" unicode="J" horiz-adv-x="822" 
d="M684 477c0 -5.33301 -6.83301 -7.99902 -20.5 -7.99902s-27.334 6.83301 -41.001 20.5s-20.5 30.334 -20.5 50.001s6 37.5 18 53.5c25.333 34.667 67.666 59.334 126.999 74.001c42.667 10.667 85.334 16 128.001 16h8c6 0 22.333 -1 49 -3
c-1.33301 8.66699 2.16699 16.834 10.5 24.501s17.833 11.5 28.5 11.5c20 0 29.667 -14.333 29 -43c72 -12.667 110 -32 114 -58c0.666992 -6 1 -11 1 -15c0 -13.333 -3.83301 -20 -11.5 -20s-10.167 8 -7.5 24c-16.667 24.667 -49.667 42 -99 52
c-12 -54 -74.667 -171.333 -188 -352c-75.333 -118.667 -163 -218 -263 -298c-114.667 -90.667 -222.667 -136 -324 -136c-62 0 -108 15.667 -138 47s-45 66.166 -45 104.499s7.33301 71.166 22 98.499c35.333 68 86.333 121 153 159c49.333 28.667 95 43 137 43
c45.333 0 80.833 -11 106.5 -33s38.5 -49.667 38.5 -83c0 -36 -13.333 -68.667 -40 -98c-16.667 -18.667 -30 -28 -40 -28c-2.66699 0 -4 1.16699 -4 3.5s1 5.5 3 9.5c24 35.333 36 68.166 36 98.499s-8.33301 55.166 -25 74.499c-19.333 20.667 -45.5 31 -78.5 31
s-69.833 -13.333 -110.5 -40c-50 -32.667 -91 -81.667 -123 -147c-16.667 -32.667 -25 -66.5 -25 -101.5s13 -63.333 39 -85s61 -32.5 105 -32.5c169.333 0 346.333 148.667 531 446c110.667 177.333 167.334 286 170.001 326c-40 2 -61 3 -63 3
c-31.333 0 -71.5 -8.66699 -120.5 -26s-80.833 -38.666 -95.5 -63.999c-6 -10 -9 -21 -9 -33s6.33301 -25.333 19 -40s19 -23.334 19 -26.001z" />
    <glyph glyph-name="K" unicode="K" horiz-adv-x="936" 
d="M832 697c14 0 21.002 -5.00098 21.002 -15.001c0 -40.667 -56 -157 -168 -349c4.66699 -18 12 -39 22 -63l298 227c114 86.667 191 142.334 231 167.001c89.333 53.333 177 80 263 80c24.667 0 47.334 -4 68.001 -12c12.667 -4.66699 19 -13.334 19 -26.001
s-3.33301 -19 -10 -19c-4 0 -8.16699 2.66699 -12.5 8s-17 8 -38 8s-55.167 -5.33301 -102.5 -16c-74.667 -16.667 -159.334 -54 -254.001 -112c-59.333 -36.667 -138.666 -93 -237.999 -169s-171 -128.333 -215 -157c34 -71.333 77.667 -137.666 131 -198.999
c82 -95.333 155.667 -143 221 -143c32 0 48 12.333 48 37c0 4.66699 -0.5 9.33398 -1.5 14.001s0.166992 10.334 3.5 17.001s7.33301 10 12 10c8.66699 0 14.334 -10.333 17.001 -31c0.666992 -3.33301 1 -6.66602 1 -9.99902c0 -21.333 -10.833 -38.833 -32.5 -52.5
s-47.334 -20.5 -77.001 -20.5s-54.5 4.66699 -74.5 14c-52.667 26 -105.834 71.667 -159.501 137s-94.834 134 -123.501 206c-36.667 -21.333 -67 -33 -91 -35c-44.667 -58 -99.667 -114.333 -165 -169c-35.333 -30 -73.666 -54.167 -114.999 -72.5s-81 -27.5 -119 -27.5
c-54 0 -95.667 13.5 -125 40.5s-44 68.167 -44 123.5c0 27.333 5.33301 52.666 16 75.999c34 75.333 85.333 127.333 154 156c38 16.667 75.833 25 113.5 25s62.834 -12.333 75.501 -37c4.66699 -8.66699 7 -17.834 7 -27.501s-1.33301 -15.834 -4 -18.501
s-6.33398 -0.333984 -11.001 6.99902c-16 29.333 -33 45.666 -51 48.999c-12 1.33301 -20.667 2 -26 2c-52 0 -100.667 -21.667 -146 -65c-58.667 -56.667 -88 -118 -88 -184c0 -72 40.667 -112.667 122 -122h8c29.333 0 67 13 113 39
c74.667 42.667 154.334 116 239.001 220c-15.333 14 -23 34.667 -23 62s10.167 53.166 30.5 77.499s48.166 36.5 83.499 36.5c10 0 19.333 -1 28 -3c33.333 56 65.666 116.5 96.999 181.5s47 102.5 47 112.5c0 1.33301 -2 2 -6 2s-27.167 -10.5 -69.5 -31.5
s-72.5 -37.5 -90.5 -49.5s-40 -30.833 -66 -56.5s-39 -46.5 -39 -62.5c0 -7.33301 5.16699 -14.666 15.5 -21.999s29.166 -11 56.499 -11c3.33301 -1.33301 5 -3.16602 5 -5.49902s-9.16699 -5 -27.5 -8s-32.833 -4.5 -43.5 -4.5c-24 0 -36 10 -36 30
c0 23.333 14.333 51.333 43 84s60 58.334 94 77.001c99.333 53.333 162.333 80 189 80zM673.002 248.999c-5.33301 13.333 -9.66699 26.667 -13 40l-40 -57c6.66699 0 12.667 0.5 18 1.5s17 6.16699 35 15.5zM635.001 335c-8 3.33301 -16.833 4.99902 -26.5 4.99902
s-19.334 -6 -29.001 -18s-14.5 -24.833 -14.5 -38.5s3.66699 -25.167 11 -34.5c32.667 46.667 52.334 75.334 59.001 86.001z" />
    <glyph glyph-name="L" unicode="L" horiz-adv-x="658" 
d="M859 592c0 -52.667 -25.668 -114.666 -77.001 -185.999c-40 -56 -93.167 -101 -159.5 -135s-127.5 -51 -183.5 -51c-20.667 0 -38 2.33301 -52 7l-135 -169c23.333 -33.333 65.5 -64.666 126.5 -93.999s113.5 -44 157.5 -44s76.667 6 98 18
c29.333 15.333 44 37.333 44 66c0 7.33301 -0.666992 14.333 -2 21s0.833984 10 6.50098 10s10.667 -4.83301 15 -14.5s6.5 -18.167 6.5 -25.5c0 -23.333 -12.333 -45.333 -37 -66c-31.333 -25.333 -74 -38 -128 -38s-110 12.667 -168 38s-105.667 59.666 -143 102.999
c-53.333 -53.333 -104 -80 -152 -80c-14.667 0 -27.334 2.66699 -38.001 8c-23.333 13.333 -35 38.666 -35 75.999s15.5 83.333 46.5 138s55.5 83.667 73.5 87c12 0 25.667 -13.667 41 -41l63 -122l111 153c-54.667 24.667 -82 60.334 -82 107.001c0 38.667 15.667 70 47 94
c17.333 12.667 35.833 19 55.5 19s34.5 -10.333 44.5 -31c2 -4 2.16699 -6.5 0.5 -7.5s-2.83398 -1.16699 -3.50098 -0.5c-13.333 13.333 -27.666 20 -42.999 20h-2c-19.333 0 -36.166 -10.333 -50.499 -31s-21.5 -39.667 -21.5 -57v-6c0 -34.667 24 -64.334 72 -89.001
l38.5 56.5l41.5 61.5c132.667 194.667 243 292 331 292c62 0 93 -29 93 -87zM769.999 662.001c-33.333 0 -74.667 -28.002 -124 -84.002c-34 -39.333 -73.833 -92.166 -119.5 -158.499s-86.834 -123.166 -123.501 -170.499c8.66699 -2 18.334 -3 29.001 -3
c46.667 0 100 16 160 48s107.333 72.333 142 121c60.667 84.667 91 149 91 193c0 26.667 -11.667 43.667 -35 51c-6 2 -12.667 3 -20 3zM201.998 64.999c-16 22 -32.666 50.167 -49.999 84.5s-28.833 54.833 -34.5 61.5s-9.5 10 -11.5 10h-4c-12 -2 -25 -23.333 -39 -64
s-21 -80.5 -21 -119.5s12 -58.5 36 -58.5c17.333 0 38.166 9 62.499 27s44.833 37.667 61.5 59z" />
    <glyph glyph-name="M" unicode="M" horiz-adv-x="1136" 
d="M423 41c-16 -24.667 -24.002 -40.6729 -24.002 -48.0059s3 -12.666 9 -15.999c0 -0.666992 -6 -5.66699 -18 -15c-10.667 -5.33301 -22.667 -8 -36 -8s-23 1.5 -29 4.5s-8 7.83301 -6 14.5c9.33301 30 44.333 90.167 105 180.5s101.334 154.166 122.001 191.499
c44.667 80.667 67 145 67 193c0 20 -3.33301 37 -10 51c-13.333 27.333 -45 41 -95 41c-78 0 -158.667 -33.667 -242 -101c-66.667 -54 -117.667 -111.167 -153 -171.5s-53 -114.166 -53 -161.499c0 -68 30 -102.667 90 -104h8c76.667 0 136 27.667 178 83
c16 22 24 40.667 24 56s-3.33301 25 -10 29c-0.666992 0.666992 -1 2 -1 4s2 3 6 3c17.333 0 26 -11.333 26 -34c0 -14 -6.83301 -33 -20.5 -57s-37.834 -46.667 -72.501 -68s-75 -32 -121 -32s-82.667 14.333 -110 43s-41 66.334 -41 113.001c0 105.333 68.667 213 206 323
c35.333 28 81.833 51 139.5 69s112.834 27 165.501 27s88.5 -9.16699 107.5 -27.5s28.5 -42.833 28.5 -73.5c0 -46.667 -19 -109.667 -57 -189c-12 -24.667 -39 -69.667 -81 -135l77 98c37.333 48.667 102 118 194 208c20 19.333 42.167 35.5 66.5 48.5
s45.166 19.5 62.499 19.5c24 0 36 -12.667 36 -38c0 -22 -10.5 -55.167 -31.5 -99.5s-42.167 -86.333 -63.5 -126s-34.333 -65.667 -39 -78s-8 -22.166 -10 -29.499s-3.33301 -11.333 -4 -12c2 3.33301 24 28.833 66 76.5s104 107.167 186 178.5l160 132
c12.667 10.667 24 16 34 16s18.167 -8.33301 24.5 -25s9.5 -30.167 9.5 -40.5s-16 -31.833 -48 -64.5c-83.333 -85.333 -154 -178.666 -212 -279.999s-87 -173.666 -87 -216.999c0 -11.333 2 -19.166 6 -23.499s10.333 -5.66602 19 -3.99902s26.834 8.5 54.501 20.5
s45.834 19 54.501 21c3.33301 -1.33301 5 -3 5 -5c0 -10 -17.5 -24 -52.5 -42s-61.333 -27 -79 -27s-28.5 3 -32.5 9c-12 17.333 -18 38.333 -18 63c0 57.333 30.667 139.666 92 246.999c39.333 67.333 100 158 182 272c-64 -52 -150.667 -131.667 -260 -239
s-181 -191.333 -215 -252c-17.333 -31.333 -38.333 -47 -63 -47c-11.333 0 -17 4 -17 12c0 2.66699 6.83301 14.667 20.5 36s43.834 71.333 90.501 150c114.667 199.333 172 319.333 172 360c0 10.667 -3.66699 16 -11 16c-10.667 0 -26.334 -9 -47.001 -27
c-74 -62 -152.667 -143 -236 -243s-146 -183 -188 -249z" />
    <glyph glyph-name="N" unicode="N" horiz-adv-x="925" 
d="M402 12c-16 -24.667 -24.0059 -40.8311 -24.0059 -48.498s3 -12.834 9 -15.501c0 -1.33301 -5.5 -5.5 -16.5 -12.5s-26.167 -10.5 -45.5 -10.5s-29 5 -29 15c0 17.333 32.833 74.833 98.5 172.5s108.834 165.167 129.501 202.5c45.333 81.333 68 145.666 68 192.999
c0 18.667 -3.66699 36 -11 52c-11.333 24 -38.666 36 -81.999 36c-79.333 0 -163.666 -36.333 -252.999 -109c-68 -56 -120.333 -114 -157 -174c-33.333 -56.667 -50 -107.334 -50 -152.001c0 -64 29.667 -96.667 89 -98h8c78.667 0 138.334 27.667 179.001 83
c16 22 24 40.667 24 56s-3.66699 25 -11 29c-0.666992 0.666992 -1 2 -1 4s2 3 6 3c17.333 0 26 -11.333 26 -34c0 -14 -6.66699 -33 -20 -57s-37.5 -46.667 -72.5 -68s-74.833 -32 -119.5 -32s-80 13 -106 39s-39 61 -39 105c0 104 71.333 213.333 214 328
c36 28.667 82.833 52.667 140.5 72s110 29 157 29s80.167 -8.83301 99.5 -26.5s29 -42.167 29 -73.5c0 -76 -46 -183.667 -138 -323c20.667 26 54.334 59 101.001 99c166 139.333 308.667 231 428 275c6 2.66699 12.667 4 20 4c25.333 0 41.333 -14.333 48 -43
c3.33301 -11.333 -12.667 -35 -48 -71c-83.333 -85.333 -154 -178.666 -212 -279.999s-87 -174 -87 -218c0 -10.667 2 -18.167 6 -22.5s10.333 -5.66602 19 -3.99902s26.834 8.5 54.501 20.5s45.834 19 54.501 21c3.33301 -1.33301 5 -3 5 -5c0 -10 -17.5 -24 -52.5 -42
s-61.167 -27 -78.5 -27s-28.333 3 -33 9c-12 16.667 -18 37.667 -18 63c0 57.333 30.667 139.666 92 246.999c39.333 67.333 100 158 182 272c-88.667 -8 -203.334 -78 -344.001 -210c-112 -106 -191.667 -197 -239 -273z" />
    <glyph glyph-name="O" unicode="O" horiz-adv-x="784" 
d="M812 356c0 -83.333 -42.6699 -163 -128.003 -239c-131.333 -117.333 -278.333 -176 -441 -176c-18 0 -32 0.333008 -42 1c-53.333 2.66699 -96.166 20.167 -128.499 52.5s-48.5 74.166 -48.5 125.499s13.667 107.333 41 168
c34.667 76.667 102.334 151.334 203.001 224.001c116 82.667 236 124 360 124c66.667 0 117.334 -13 152.001 -39s52 -58.333 52 -97c0 -24 -9.33301 -53.667 -28 -89c5.33301 -18 8 -36.333 8 -55zM790.997 441c6.66699 16 10.002 33.835 10.002 53.502
s-7.33301 39.834 -22 60.501c-28.667 40 -79.334 60 -152.001 60c-100.667 0 -195.667 -31.167 -285 -93.5s-159 -140.833 -209 -235.5c-36.667 -68.667 -55 -130.334 -55 -185.001c0 -88 44.333 -134.333 133 -139c9.33301 -0.666992 18.666 -1 27.999 -1
c131.333 0 256.333 53 375 159c85.333 76 131.333 148.333 138 217c-34.667 -38 -94.667 -83.333 -180 -136l-8 -2c-0.666992 0 -1 0.333008 -1 1c0 2.66699 9 11.667 27 27l56 46c48 42 83 76.333 105 103c-4.66699 37.333 -21.5 68.5 -50.5 93.5
s-62.167 43.167 -99.5 54.5c-18.667 4.66699 -47.5 7.66699 -86.5 9s-58.5 2.66602 -58.5 3.99902s0.666992 2.66602 2 3.99902c30.667 10 60.167 15 88.5 15s60.833 -4.33301 97.5 -13c70 -16.667 119 -50.667 147 -102z" />
    <glyph glyph-name="P" unicode="P" horiz-adv-x="1057" 
d="M1196 447c0 -34 -17.001 -71.333 -51.001 -112s-85.5 -73.667 -154.5 -99s-136 -38 -201 -38s-116.5 8.33301 -154.5 25c-84 -123.333 -138.667 -197.666 -164 -222.999c-72 -72 -158 -108 -258 -108c-56.667 0 -99.167 13.167 -127.5 39.5s-42.5 60.5 -42.5 102.5
c0 58 23.333 112.667 70 164c51.333 56.667 116 85 194 85c32 0 59 -7.33301 81 -22s33 -37 33 -67c0 -20 -11.333 -44 -34 -72s-36.667 -42 -42 -42c-1.33301 0 -2 1.33301 -2 4s1 5.33398 3 8.00098c21.333 31.333 32 60.166 32 86.499s-8.16699 46.666 -24.5 60.999
s-36.5 21.5 -60.5 21.5c-56 0 -105.5 -25.5 -148.5 -76.5s-64.5 -102.5 -64.5 -154.5c0 -33.333 10.5 -60.333 31.5 -81s53.5 -31 97.5 -31c82 0 152.333 27.667 211 83c34 32 68.333 78.667 103 140l87 157c42.667 68.667 92.334 170.667 149.001 306h-18
c-90 0 -180.333 -9.83301 -271 -29.5s-159.334 -47.834 -206.001 -84.501c-20 -15.333 -30 -30.333 -30 -45s7.83301 -26.5 23.5 -35.5s34.167 -13.5 55.5 -13.5s47.833 4.16699 79.5 12.5s55.5 19.5 71.5 33.5c6.66699 5.33301 11.334 8 14.001 8
c5.33301 0 6.33301 -2.66699 3 -8c-24 -28 -60.333 -49 -109 -63c-30 -8.66699 -59.667 -13 -89 -13s-53.333 6.5 -72 19.5s-28 30.667 -28 53s12 44.833 36 67.5c45.333 44 126.333 76.667 243 98c82.667 14.667 177.667 22 285 22h27c14.667 12.667 28 19 40 19
s18 -4.66699 18 -14c0 -2 -0.333008 -4.33301 -1 -7c103.333 -7.33301 187 -24.666 251 -51.999c76 -32 114 -73.667 114 -125zM1149 457c0 42 -34.002 76.333 -102.002 103c-59.333 23.333 -133.666 37.333 -222.999 42l-32 -100c-25.333 -62.667 -74 -150 -146 -262
c6.66699 -3.33301 18 -7 34 -11c26.667 -4.66699 47.334 -7 62.001 -7c50.667 0 109 10.5 175 31.5s121.167 51.667 165.5 92s66.5 77.5 66.5 111.5z" />
    <glyph glyph-name="Q" unicode="Q" horiz-adv-x="797" 
d="M97 -82c-7.33301 0 -11.0059 12.665 -11.0059 37.998c0 9.33301 0.666992 17.666 2 24.999c-42.667 32.667 -64 80.667 -64 144c0 48 13.667 102.333 41 163c34.667 76.667 102.334 151.334 203.001 224.001c116 82.667 236 124 360 124
c66.667 0 117.334 -13 152.001 -39s52 -58.333 52 -97c0 -24 -9.33301 -53.667 -28 -89c5.33301 -18 8 -36.333 8 -55c0 -83.333 -42.667 -163 -128 -239c-76 -68 -156.333 -116 -241 -144c135.333 -97.333 226.666 -146 273.999 -146c10.667 0 20.334 2.83301 29.001 8.5
s13 12.334 13 20.001s-2.33301 14.834 -7 21.501c-2 4.66699 -3 8.33398 -3 11.001c0 9.33301 5.83301 7.66602 17.5 -5.00098s17.5 -26 17.5 -40s-6.66699 -25.667 -20 -35s-30.666 -14 -51.999 -14c-69.333 0 -179.666 53.667 -330.999 161
c-41.333 -9.33301 -87.666 -14 -138.999 -14s-92.666 7.33301 -123.999 22c-9.33301 -30 -16.333 -45 -21 -45zM790.994 440.998c6.66699 16 10 33.834 10 53.501s-7.33301 39.834 -22 60.501c-28.667 40 -79.334 60 -152.001 60c-100.667 0 -195.667 -31.167 -285 -93.5
s-159 -140.833 -209 -235.5c-36.667 -68.667 -55 -130.334 -55 -185.001c0 -34.667 7.33301 -62.667 22 -84c7.33301 18 16.333 34.333 27 49c16.667 24 38.334 36 65.001 36s53.667 -7.66699 81 -23c36 -19.333 82 -47.333 138 -84c71.333 26.667 139 68.334 203 125.001
c84.667 74.667 130.667 147 138 217c-34.667 -38 -94.667 -83.333 -180 -136l-8 -2c-0.666992 0 -1 0.333008 -1 1c0 2.66699 9 11.667 27 27l56 46c48 42 83 76.333 105 103c-4.66699 37.333 -21.5 68.5 -50.5 93.5s-62.167 43.167 -99.5 54.5
c-18.667 4.66699 -47.5 7.66699 -86.5 9s-58.5 2.66602 -58.5 3.99902s0.666992 2.66602 2 3.99902c30.667 10 60.167 15 88.5 15s60.833 -4.33301 97.5 -13c70 -16.667 119 -50.667 147 -102zM349.994 -24.001c-76.667 46.667 -129.001 70 -157.001 70s-47 -10.667 -57 -32
l-10 -24c22.667 -18 51 -27.333 85 -28h20c38.667 0 78.334 4.66699 119.001 14z" />
    <glyph glyph-name="R" unicode="R" horiz-adv-x="752" 
d="M572 270c-33.333 0 -64.332 2.66699 -92.999 8c9.33301 -29.333 29 -95.666 59 -198.999c9.33301 -30 24 -60.333 44 -91c27.333 -39.333 52.666 -59 75.999 -59c28 0 51.333 28.333 70 85c3.33301 13.333 6.83301 20 10.5 20s6.33398 -3.83301 8.00098 -11.5
s2.5 -12.834 2.5 -15.501c0 -16.667 -9.33301 -38 -28 -64c-24.667 -36.667 -51.667 -55 -81 -55s-56.333 14.667 -81 44s-48.834 82.833 -72.501 160.5s-35.5 127.167 -35.5 148.5c0 3.33301 0.333008 6 1 8c-80 -106 -137.333 -176 -172 -210
c-77.333 -75.333 -156.333 -113 -237 -113c-56.667 0 -85 21.333 -85 64c0 21.333 6.66699 44.833 20 70.5s29.666 48.167 48.999 67.5s36.333 29 51 29c2.66699 0 4 -0.666992 4 -2c0 -3.33301 -8.33301 -11.666 -25 -24.999s-32.667 -32.166 -48 -56.499
s-23 -46.5 -23 -66.5c0 -35.333 23.667 -53 71 -53c88.667 0 210.667 104 366 312c8.66699 11.333 16 19.333 22 24l-16 6c-8.66699 -3.33301 -15.667 -5 -21 -5c-14 0 -21 5.66699 -21 17c0 15.333 10.333 25.333 31 30c2.66699 0.666992 5 1 7 1c12 0 26 -6 42 -18
c58.667 65.333 88.667 98.666 90 99.999c48.667 50 81.5 75 98.5 75s25.5 -7.33301 25.5 -22c0 -6.66699 -1.5 -13 -4.5 -19s-6.5 -9 -10.5 -9c-4 -1.33301 -6 0.666992 -6 6c0 2.66699 2 6.66699 6 12c0.666992 9.33301 -2.33301 14 -9 14c-21.333 0 -73 -56.667 -155 -170
c20 -1.33301 36.667 -2 50 -2c154.667 0 251.334 40 290.001 120c8 17.333 12 33.333 12 48c0 29.333 -13.333 54.666 -40 75.999c-42.667 34.667 -112 52 -208 52s-194 -24.333 -294 -73c-121.333 -59.333 -182 -129 -182 -209c0 -26 16.333 -39 49 -39
s67.334 12 104.001 36s61.334 47.667 74.001 71c4.66699 8.66699 9.16699 13 13.5 13s5.5 -2.66699 3.5 -8c-12.667 -37.333 -40.834 -69.166 -84.501 -95.499s-89.167 -39.5 -136.5 -39.5s-71 15 -71 45v7c10 87.333 63.5 161.5 160.5 222.5s213.833 91.5 350.5 91.5
c127.333 0 217.666 -22 270.999 -66c32 -26.667 48 -58 48 -94c0 -15.333 -3.66699 -32 -11 -50c-20.667 -48.667 -63 -84.834 -127 -108.501s-131.333 -35.5 -202 -35.5z" />
    <glyph glyph-name="S" unicode="S" horiz-adv-x="748" 
d="M791 428c-24.667 -10 -45.834 -14.998 -63.501 -14.998s-26.5 3.66699 -26.5 11c0 4.66699 9.83301 7.33398 29.5 8.00098s33.834 3 42.501 7c25.333 13.333 38 33 38 59c0 13.333 -3.66699 27.333 -11 42c-21.333 38 -73 57 -155 57
c-47.333 0 -94.666 -7.16699 -141.999 -21.5s-87 -36.333 -119 -66s-48 -57.167 -48 -82.5c0 -38.667 38.333 -67 115 -85l118 -22c47.333 -8.66699 82.666 -20.667 105.999 -36c30.667 -18.667 46 -45.334 46 -80.001c0 -14 -2.33301 -29 -7 -45
c-21.333 -72 -76.333 -127 -165 -165c-74 -32.667 -161.333 -49 -262 -49c-28.667 0 -53.667 1.33301 -75 4c21.333 -12 49.333 -22.333 84 -31c2.66699 -0.666992 4 -2 4 -4c0 -6 -7 -9 -21 -9c-27.333 0 -61.333 16.333 -102 49c-55.333 8.66699 -96.666 24 -123.999 46
c-17.333 14 -33.333 34.667 -48 62s-22 52 -22 74s4.33301 40.333 13 55c20 35.333 45.333 53 76 53c23.333 0 37 -19.667 41 -59c9.33301 -76 15.666 -119.333 18.999 -130c10 -32.667 27 -60.334 51 -83.001c28 -6 58.333 -9 91 -9c72 0 142.667 14.333 212 43
s119.333 69.334 150 122.001c12.667 20.667 19 39 19 55c0 31.333 -27.667 55.666 -83 72.999l-176 40c-36 8.66699 -64.833 23 -86.5 43s-32.5 43 -32.5 69c0 40 25 80 75 120c38 30.667 84.5 54.5 139.5 71.5s109 25.5 162 25.5s96.833 -7.66699 131.5 -23
c44.667 -20.667 67 -50.834 67 -90.501s-20.333 -67.5 -61 -83.5zM147 -17.998c-38.667 42.667 -63.332 101 -73.999 175c-6 42 -11.667 63 -17 63s-10.333 -1.5 -15 -4.5s-9.33398 -9.5 -14.001 -19.5s-7 -23 -7 -39c0 -51.333 18 -95.333 54 -132
c18 -18.667 42.333 -33 73 -43z" />
    <glyph glyph-name="T" unicode="T" horiz-adv-x="661" 
d="M28 67c0 72 21.333 143.331 64 213.998c-49.333 31.333 -74 77.666 -74 138.999c0 74 32.667 139.667 98 197c73.333 64.667 168 97 284 97c53.333 0 110.666 -7.66699 171.999 -23c14 -3.33301 73.667 -29.166 179 -77.499s181 -72.5 227 -72.5
c30.667 0 53.667 8.66699 69 26c8 8.66699 12 18 12 28s-4.33301 19 -13 27c-4.66699 6.66699 -7 11 -7 13s1.83301 3 5.5 3s10 -5.83301 19 -17.5s13.5 -25.334 13.5 -41.001s-10.5 -30.667 -31.5 -45s-47.5 -21.5 -79.5 -21.5c-50 0 -127.667 24.167 -233 72.5
s-171.5 75.166 -198.5 80.499s-57.833 8 -92.5 8c-138 0 -246.667 -44.667 -326 -134c-9.33301 -10 -20.333 -30.167 -33 -60.5s-19 -59.5 -19 -87.5c0 -38.667 13.667 -68.667 41 -90c34.667 50.667 75.667 91 123 121s95.333 45 144 45c60 0 90 -23.333 90 -70
c0 -56 -32.833 -116.833 -98.5 -182.5s-126.5 -98.5 -182.5 -98.5c-36 0 -54 15.333 -54 46c0 10.667 2.83301 20 8.5 28s12.5 11 20.5 9l-2 -23c0 -10 15.333 -15 46 -15c45.333 0 93.166 23.333 143.499 70s80.833 92.334 91.5 137.001c2.66699 10 4 19 4 27
c0 30 -19.167 45 -57.5 45s-78 -14.667 -119 -44s-79.5 -68 -115.5 -116c2.66699 -1.33301 13 -4 31 -8l60 -2c29.333 -1.33301 44 -4.66602 44 -9.99902c0 -9.33301 -14 -14 -42 -14h-6c-40.667 0 -74 5 -100 15c-51.333 -78.667 -77 -151 -77 -217
c0 -85.333 33 -128 99 -128c74.667 0 152.334 52 233.001 156l196 292c73.333 106.667 137 161.334 191 164.001l38 -9c12 -6.66699 18 -16.667 18 -30s-3.33301 -20 -10 -20l-32 5c-46 0 -105 -49.667 -177 -149l-199 -278c-85.333 -99.333 -167 -149 -245 -149
c-53.333 0 -90.166 14.333 -110.499 43s-30.5 70.334 -30.5 125.001z" />
    <glyph glyph-name="U" unicode="U" horiz-adv-x="801" 
d="M345 -19c-28.667 0 -43.0029 9.99609 -43.0029 29.9961c0 34.667 44.167 114.167 132.5 238.5s141.833 200.833 160.5 229.5c40.667 62.667 61 105.334 61 128.001c0 11.333 -4.33301 18.333 -13 21c-16 6.66699 -34.667 10 -56 10c-73.333 0 -167 -39 -281 -117
c-74.667 -52 -136.5 -112.833 -185.5 -182.5s-73.5 -127.167 -73.5 -172.5c0 -32.667 13.333 -51.334 40 -56.001c10.667 -2 21.334 -3 32.001 -3c34 0 69 11 105 33c18 10.667 40.667 28.334 68 53.001l18 6c-12.667 -24 -39.167 -48.333 -79.5 -73s-81.833 -37 -124.5 -37
c-10 0 -21.667 1.33301 -35 4s-26.166 12.167 -38.499 28.5s-18.5 37.833 -18.5 64.5c0 104.667 98.667 227.667 296 369c40 28.667 87.333 53.5 142 74.5s104.334 31.5 149.001 31.5c22.667 0 44.5 -4.33301 65.5 -13s31.5 -23.167 31.5 -43.5s-11.833 -49.333 -35.5 -87
s-60.667 -90.667 -111 -159s-93 -132.166 -128 -191.499s-52.5 -100.666 -52.5 -123.999c0 -11.333 4.66699 -17 14 -17c18 0 51.667 18.667 101 56c117.333 89.333 255.333 234.333 414 435c25.333 32 45.666 48 60.999 48c6 0 9 -3 9 -9c0 -2.66699 -1 -6 -3 -10
c0.666992 -2 1 -4 1 -6c0 -14 -8 -33 -24 -57l-118 -167c-48 -69.333 -90.333 -135 -127 -197s-53.667 -98.333 -51 -109l18 6c33.333 18.667 62.333 40.334 87 65.001c8.66699 6.66699 14 10 16 10l2 -2c0 -6 -9 -18.667 -27 -38c-46.667 -40.667 -80 -61 -100 -61
s-30 6.33301 -30 19s17.833 52 53.5 118s92.834 157 171.501 273c-13.333 -16 -34.333 -39.667 -63 -71c-164 -168 -262.333 -265 -295 -291c-48.667 -38 -94 -57 -136 -57z" />
    <glyph glyph-name="V" unicode="V" horiz-adv-x="690" 
d="M290 286c9.33301 0 14 -10.999 14 -32.999c0 -33.333 -16.5 -64.5 -49.5 -93.5s-70.833 -43.5 -113.5 -43.5c-27.333 0 -53.666 6.66699 -78.999 20c-54 29.333 -81 80.333 -81 153c0 51.333 14 101.666 42 150.999c38.667 67.333 94.167 120.666 166.5 159.999
s142.833 59 211.5 59c50 0 91 -11 123 -33c36 -24.667 54 -61.334 54 -110.001c0 -62 -30 -159.167 -90 -291.5s-90 -207.166 -90 -224.499c0 -5.33301 1.66699 -7 5 -5c17.333 11.333 96.833 101.833 238.5 271.5s240.167 274.5 295.5 314.5
c49.333 36.667 90.5 64.167 123.5 82.5s66.833 27.5 101.5 27.5c9.33301 0 16.333 -0.333008 21 -1c18 -1.33301 27 -10.666 27 -27.999c0 -8.66699 -3 -13 -9 -13c-0.666992 0 -5.33398 1.5 -14.001 4.5s-16 4.5 -22 4.5c-93.333 0 -219 -84.333 -377 -253
c-59.333 -63.333 -131.5 -148.666 -216.5 -255.999s-135.167 -165.333 -150.5 -174c-54 -30.667 -84.333 -46 -91 -46c-2 0 -3 3.33301 -3 10c0 22 18.667 78 56 168l67 156l46 135c16 45.333 24 78.333 24 99c0 46 -13.333 81 -40 105s-65 36 -115 36
s-103.667 -17.667 -161 -53c-62 -40 -108.333 -89.333 -139 -148s-46 -108.334 -46 -149.001s8.33301 -72.667 25 -96c27.333 -38 63.666 -57 108.999 -57c34.667 0 65.334 11.5 92.001 34.5s40 52.167 40 87.5c0 7.33301 -0.833008 14 -2.5 20s0.833008 9 7.5 9z" />
    <glyph glyph-name="W" unicode="W" horiz-adv-x="1135" 
d="M633 27c0 -44.667 22.3359 -66.999 67.0029 -66.999c60 0 132.333 43.333 217 130c76.667 77.333 135.167 156.166 175.5 236.499s60.5 141.5 60.5 183.5c0 6.66699 -0.666992 13.334 -2 20.001c-14.667 0 -29.667 7.66699 -45 23v-1c-10 8 -15 16.167 -15 24.5
s3.33301 15.166 10 20.499s15.334 8 26.001 8s18.167 -4.16699 22.5 -12.5s9.83301 -15.833 16.5 -22.5s9.66699 -11.334 9 -14.001c4 -6 10.167 -9 18.5 -9s17.833 4 28.5 12s19.167 12 25.5 12s9.5 -2 9.5 -6c0 -7.33301 -6.33301 -14.333 -19 -21
c-6.66699 -5.33301 -14.667 -8.33301 -24 -9h-32c8 -27.333 12 -47 12 -59c0 -53.333 -25.5 -122.666 -76.5 -207.999s-116.5 -161 -196.5 -227c-80.667 -68 -153.834 -102 -219.501 -102s-98.5 32 -98.5 96c0 50.667 21.333 123 64 217l72 157l-98 -76
c-30.667 -25.333 -61.834 -53.166 -93.501 -83.499s-86.834 -92.833 -165.501 -187.5l-116 -142c-18.667 -21.333 -35.334 -32 -50.001 -32c-11.333 0 -17 7.33301 -17 22s6 33.667 18 57l193 278c116.667 171.333 175 280 175 326c0 25.333 -23.333 38 -70 38
c-56.667 0 -135.667 -34.667 -237 -104c-54.667 -37.333 -102.667 -84.166 -144 -140.499s-62 -103 -62 -140s24.667 -55.5 74 -55.5c46 0 93.333 21.333 142 64c17.333 14.667 27.333 22 30 22s3.66699 -2.33301 3 -7c-7.33301 -25.333 -34.5 -49.5 -81.5 -72.5
s-88.5 -34.5 -124.5 -34.5c-9.33301 0 -15.666 0.333008 -18.999 1h-1c-53.333 11.333 -80 37.666 -80 78.999s23 91 69 149c81.333 102.667 186 179 314 229c66 25.333 120.333 38 163 38c52.667 0 79 -17.333 79 -52c0 -72 -90.667 -228.333 -272 -469
c-60.667 -80.667 -91.334 -121 -92.001 -121c2 0 36.833 37.667 104.5 113s131.834 139.666 192.501 192.999c23.333 20.667 63.666 58.667 120.999 114c30 28 62.333 53.333 97 76c8.66699 5.33301 21.167 8 37.5 8s27.5 -4.66699 33.5 -14
c-61.333 -76 -114.833 -161.167 -160.5 -255.5s-68.5 -161.833 -68.5 -202.5zM1214 535.001h1h-1z" />
    <glyph glyph-name="X" unicode="X" horiz-adv-x="640" 
d="M1006 644c-44 0 -124.666 -47.3379 -241.999 -142.005c-76 -61.333 -144.667 -122.666 -206 -183.999c-5.33301 -14 -12.333 -37 -21 -69c-28.667 -104 -43 -174.667 -43 -212c0 -19.333 5.66699 -29 17 -29c27.333 0 75.333 34 144 102c11.333 11.333 17 13.333 17 6
c0 -20 -24 -47.667 -72 -83c-60 -44.667 -102.333 -67 -127 -67c-22 0 -33 15 -33 45s15.333 102 46 216l11 44c-147.333 -129.333 -276.333 -224 -387 -284c-77.333 -42 -138.333 -63 -183 -63c-5.33301 0 -10.666 0.333008 -15.999 1c-52 7.33301 -78 39.333 -78 96
s19 116.334 57 179.001c14 23.333 25.333 35 34 35c2.66699 0 4 -2.16699 4 -6.5s-2.33301 -9.83301 -7 -16.5c-36.667 -58.667 -55 -113 -55 -163c0 -27.333 6 -50.666 18 -69.999c15.333 -21.333 35.666 -32 60.999 -32c53.333 0 141.666 44.333 264.999 133
c90 64.667 185 142.334 285 233.001l16 14c15.333 66.667 23 126 23 178s-12 86 -36 102c-14.667 10 -33 15 -55 15s-43.333 -3.33301 -64 -10c-76 -23.333 -136.833 -65.833 -182.5 -127.5s-68.5 -118.167 -68.5 -169.5s19.333 -77 58 -77
c21.333 0 47.666 9.66699 78.999 29c8 6 12 9.33301 12 10c2 -2 -0.333008 -6.33301 -7 -13c-26.667 -26.667 -61.667 -40 -105 -40c-26 0 -46.667 6.5 -62 19.5s-23 31.167 -23 54.5c0 4 0.333008 8.33301 1 13c8 88.667 50.833 164.667 128.5 228s155.834 95 234.501 95
c21.333 0 40 -2.33301 56 -7c53.333 -17.333 80 -66.333 80 -147c0 -27.333 -3.66699 -60.333 -11 -99c69.333 61.333 142.5 121.333 219.5 180s128.5 91.667 154.5 99s43.5 11 52.5 11s15.167 -0.666992 18.5 -2c12.667 -4.66699 19 -10.167 19 -16.5
s-8.33301 -9.16602 -25 -8.49902h-2z" />
    <glyph glyph-name="Y" unicode="Y" horiz-adv-x="882" 
d="M336 -254c-25.333 0 -50.165 8.99805 -74.498 26.998s-36.5 38 -36.5 60c0 14 7 21 21 21c3.33301 0 8.33301 -0.666992 15 -2c8 -28 14.667 -47 20 -57c11.333 -18 30.666 -27 57.999 -27c82 0 182.667 112 302 336l180 321l-273.5 -286.5
c-53.667 -53.667 -90.5 -86.5 -110.5 -98.5c-40 -24 -73 -36 -99 -36c-38 0 -57 22.333 -57 67c0 53.333 22.667 108.333 68 165l42.5 51.5l88 108.5c33.667 42 61.667 82.5 84 121.5s33.5 66.333 33.5 82s-4.66699 25.834 -14 30.501c-19.333 10 -41.333 15 -66 15
c-70.667 0 -168.334 -42.667 -293.001 -128c-52 -35.333 -93.333 -76.333 -124 -123s-46 -89.667 -46 -129s19 -64 57 -74c12 -3.33301 23.667 -5 35 -5c34 0 71.667 14.667 113 44c48.667 32.667 76 50 82 52c-6.66699 -24.667 -33 -51.667 -79 -81
c-50.667 -31.333 -98 -47 -142 -47c-6 0 -17.167 1.16699 -33.5 3.5s-32.5 14.5 -48.5 36.5s-24 48.667 -24 80c0 90.667 66.333 183.334 199 278.001c38.667 28 89.667 53.333 153 76s114.5 34 153.5 34s68.667 -6.16699 89 -18.5s30.5 -32 30.5 -59s-18.667 -69 -56 -126
s-96.333 -134.5 -177 -232.5c-16.667 -19.333 -32 -44.5 -46 -75.5s-21 -55.667 -21 -74s7.16699 -27.5 21.5 -27.5s35.833 10.333 64.5 31c81.333 58 162.5 128.333 243.5 211s140.5 152 178.5 208c27.333 39.333 56.333 59 87 59c10.667 0 16 -3.33301 16 -10
c0 -1.33301 -0.666992 -4 -2 -8l-343 -584c-42.667 -70 -88.167 -122.5 -136.5 -157.5s-92.5 -52.5 -132.5 -52.5z" />
    <glyph glyph-name="Z" unicode="Z" horiz-adv-x="739" 
d="M908 533c-3.33301 0 -38.9971 5.33398 -106.997 16.001c-112.667 -64 -241.834 -146 -387.501 -246s-263.5 -192.333 -353.5 -277c102 11.333 205.667 21.666 311 30.999c12 0.666992 29.333 1 52 1c83.333 0 149 -8 197 -24s72 -37.333 72 -64
c0 -16 -9.66699 -33.667 -29 -53c-25.333 -23.333 -42.666 -35 -51.999 -35c-3.33301 0 -5 2.83301 -5 8.5s3.83301 12 11.5 19s11.5 13.5 11.5 19.5c0 20.667 -31 39.667 -93 57c-64.667 18.667 -125.334 28 -182.001 28s-122.5 -5.5 -197.5 -16.5
s-134.167 -16.5 -177.5 -16.5h-7c-10.667 -9.33301 -17.334 -14 -20.001 -14c-1.33301 0 -2 1.16699 -2 3.5s2 6.83301 6 13.5c-24.667 1.33301 -37 8.33301 -37 21c0 10 5.33301 20.333 16 31s20 16 28 16c1.33301 0 2.66602 -0.666992 3.99902 -2
c3.33301 -5.33301 17.666 -10 42.999 -14c168.667 176 410.334 350.333 725.001 523l-30 6c-47.333 10.667 -108.333 16 -183 16s-139.667 -10 -195 -30c-12 -2.66699 -30 -10 -54 -22c-38.667 -19.333 -58 -42.333 -58 -69c0 -4 0.833008 -8.83301 2.5 -14.5
s1.5 -10.167 -0.5 -13.5c-2.66699 -4 -7.16699 -6 -13.5 -6s-12.333 4.66699 -18 14s-8.5 19.333 -8.5 30s1.66699 21.667 5 33c12.667 42.667 53.667 74 123 94c35.333 10 94.5 15 177.5 15s165.167 -7.33301 246.5 -22c10 -0.666992 26.667 -3.66699 50 -9l55 30
c5.33301 2.66699 17 4 35 4s27 -3.33301 27 -10c0 -2.66699 -3 -5 -9 -7c-2.66699 -2 -19.667 -11.667 -51 -29c30 -2 48.5 -3 55.5 -3s13.333 1.66699 19 5s7.66699 8.33301 6 15s-1.16699 10 1.5 10c4 0 8.83301 -4.5 14.5 -13.5s8.5 -17.167 8.5 -24.5
c0 -16.667 -11 -25 -33 -25z" />
    <glyph glyph-name="bracketleft" unicode="[" horiz-adv-x="585" 
d="M164 4l75.0029 5.00098c19.333 0 29 -4 29 -12c0 -9.33301 -28 -14 -84 -14c-107.333 0 -161 12 -161 36c0 79.333 43.167 201.666 129.5 366.999s162.166 270.333 227.499 315c17.333 11.333 53.833 17 109.5 17s83.5 -7 83.5 -21c0 -2.66699 -0.333008 -7 -1 -13
c-2.66699 -0.666992 -7.33398 -1 -14.001 -1l-72 4c-29.333 0 -49.333 -3.33301 -60 -10s-29.334 -25.667 -56.001 -57c-54 -64 -114.667 -158.167 -182 -282.5s-101 -216.833 -101 -277.5c0 -37.333 25.667 -56 77 -56z" />
    <glyph glyph-name="backslash" unicode="\" horiz-adv-x="551" 
d="M54 698c16 0 99.667 -100.665 251 -301.998c153.333 -206 240.333 -337.333 261 -394c14.667 -40 22 -71 22 -93s-5.66699 -33 -17 -33c-9.33301 0 -16.333 3.33301 -21 10c-2.66699 5.33301 -1.5 9.16602 3.5 11.499s7.5 9 7.5 20s-2 22.5 -6 34.5
c-21.333 56 -90.166 162.167 -206.499 318.5s-219.5 286.166 -309.5 389.499c-6 7.33301 -9 13.333 -9 18s2.16699 9.16699 6.5 13.5s10.166 6.5 17.499 6.5z" />
    <glyph glyph-name="bracketright" unicode="]" horiz-adv-x="556" 
d="M432 697l-75.0029 -5c-19.333 0 -29 4 -29 12c0 9.33301 28 14 84 14c107.333 0 161 -12 161 -36c0 -80 -43.167 -202.333 -129.5 -367s-162.166 -269.667 -227.499 -315c-17.333 -11.333 -53.833 -17 -109.5 -17s-83.5 7 -83.5 21c0 2.66699 0.333008 7 1 13
c2.66699 0.666992 7.33398 1 14.001 1l72 -4c29.333 0 49.333 3.33301 60 10s29.334 25.667 56.001 57c54 64 114.667 158.167 182 282.5s101 216.833 101 277.5c0 37.333 -25.667 56 -77 56z" />
    <glyph glyph-name="asciicircum" unicode="^" horiz-adv-x="370" 
d="M186 412c-66.667 -56 -103.667 -84 -111 -84s-11 3.5 -11 10.5s20.333 26.833 61 59.5c41.333 34.667 66.333 52.334 75 53.001l6 -2c25.333 -28 67 -64 125 -108l5 -10l-4 -7c-15.333 1.33301 -41 13.666 -77 36.999s-59 40.333 -69 51z" />
    <glyph glyph-name="underscore" unicode="_" horiz-adv-x="806" 
d="M786 -60c-227.333 0 -481 -4.33301 -761 -13c-11.333 0 -17 8 -17 24s5.66699 24 17 24h740c16.667 0 26 -9.33301 28 -28z" />
    <glyph glyph-name="grave" unicode="`" horiz-adv-x="221" 
d="M169 312c2.66699 -2 4 -4.49805 4 -7.49805s-2 -4.5 -6 -4.5s-23.667 10.667 -59 32s-56 34.166 -62 38.499s-9 10.666 -9 18.999s3.33301 12.5 10 12.5c8 0 48.667 -30 122 -90z" />
    <glyph glyph-name="a" unicode="a" horiz-adv-x="412" 
d="M332 299l14.001 3c7.33301 0 14.333 -3 21 -9s10 -10.667 10 -14s-20.667 -35.5 -62 -96.5s-62 -103.5 -62 -127.5c0 -2 0.333008 -4 1 -6c3.33301 -15.333 10.666 -23 21.999 -23c34.667 0 98 57.333 190 172c2 2.66699 4.33301 4 7 4s4 -2.5 4 -7.5s-3 -11.5 -9 -19.5
c-85.333 -114 -150.333 -171 -195 -171c-6 0 -11.667 1 -17 3c-29.333 11.333 -44 33.333 -44 66c0 11.333 1.33301 22.666 4 33.999l-62 -60c-39.333 -34.667 -67.833 -52 -85.5 -52s-34.5 5.66699 -50.5 17c-18 13.333 -27 31 -27 53c0 48.667 34 106.834 102 174.501
s130.333 101.5 187 101.5c22 0 36.667 -7.66699 44 -23l5 -13.5c1.33301 -3.66699 2.33301 -5.5 3 -5.5zM33.001 53c0 -24 8.33203 -36 24.999 -36c38.667 0 91.334 42.333 158.001 127l106 146c-5.33301 9.33301 -14 14 -26 14c-40.667 0 -94.667 -31.5 -162 -94.5
s-101 -115.167 -101 -156.5z" />
    <glyph glyph-name="b" unicode="b" horiz-adv-x="365" 
d="M228 249c0 45.333 14.0029 67.9961 42.0029 67.9961c2.66699 0 5.66699 -0.333008 9 -1c11.333 -2 17 -10.667 17 -26s-2.66699 -34.666 -8 -57.999c-5.33301 -17.333 -9 -30.333 -11 -39c2 -11.333 7.5 -25.833 16.5 -43.5s21.333 -26.5 37 -26.5s33.167 10.667 52.5 32
c4 4.66699 7.83301 7 11.5 7s5.66699 -2.16699 6 -6.5s-2.16699 -10.166 -7.5 -17.499c-20.667 -24.667 -42.334 -37 -65.001 -37c-32.667 0 -59 24 -79 72c-20.667 -47.333 -50 -88.166 -88 -122.499s-75.667 -51.5 -113 -51.5c-35.333 0 -53 26.667 -53 80
c0 42 39.167 119.333 117.5 232s138.166 169 179.499 169c8.66699 0 16.5 -2.66699 23.5 -8s10.5 -11.666 10.5 -18.999c0 0.666992 -4.83301 -4.33301 -14.5 -15l-79 -86c-43 -46.667 -85.167 -98 -126.5 -154s-62 -99.333 -62 -130c0 -8 2.16699 -16.667 6.5 -26
s11.5 -14 21.5 -14c29.333 0 63.666 22.667 102.999 68c32.667 40 52.667 73.667 60 101c-4.66699 14 -7 31.333 -7 52z" />
    <glyph glyph-name="c" unicode="c" horiz-adv-x="283" 
d="M76 -13c-7.33301 0 -13.999 1 -19.999 3c-42.667 12 -64 36 -64 72c0 46.667 29.333 100.667 88 162s111.334 92 158.001 92c15.333 0 27.833 -4.16699 37.5 -12.5s14.5 -19.666 14.5 -33.999s-4.33301 -29.333 -13 -45s-21.667 -23.5 -39 -23.5s-26 5.33301 -26 16
c0 7.33301 4.5 18.5 13.5 33.5s13.5 23 13.5 24s-1 1.5 -3 1.5c-18.667 -2 -44.167 -15.333 -76.5 -40s-54.5 -45.334 -66.5 -62.001l-39 -57c-6.66699 -10.667 -11.5 -23.334 -14.5 -38.001s-4.5 -25.667 -4.5 -33s4.16699 -15.666 12.5 -24.999s20.166 -14 35.499 -14
c33.333 0 74.666 19.5 123.999 58.5s87.333 76.167 114 111.5c3.33301 4 7.33301 6 12 6s7 -1.33301 7 -4s-1.66699 -6 -5 -10c-36.667 -48.667 -80.5 -91.167 -131.5 -127.5s-93.5 -54.5 -127.5 -54.5z" />
    <glyph glyph-name="d" unicode="d" horiz-adv-x="467" 
d="M328 303c74.667 121.333 126.667 181.995 156 181.995c4.66699 0 11.167 -1.5 19.5 -4.5s12.5 -7.5 12.5 -13.5c0 -3.33301 -1.66699 -7.66602 -5 -12.999l-119 -147c-78.667 -99.333 -122 -170.666 -130 -213.999c-2 -9.33301 -3 -18.666 -3 -27.999
c0 -30 12.333 -45 37 -45c49.333 0 113.666 45.667 192.999 137c6.66699 6.66699 12.334 10.5 17.001 11.5s7 -0.166992 7 -3.5s-2 -7.33301 -6 -12c-77.333 -92.667 -146 -144.334 -206 -155.001c-3.33301 -0.666992 -8 -1 -14 -1c-20.667 0 -36.167 7.16699 -46.5 21.5
s-15.5 29.833 -15.5 46.5c0 18.667 3.66699 39.334 11 62.001l-81 -81c-36.667 -34 -65.5 -51 -86.5 -51s-38.5 5.66699 -52.5 17c-16.667 12.667 -25 30.334 -25 53.001c0 48.667 34 106.834 102 174.501s130.333 101.5 187 101.5c18.667 0 31.667 -5 39 -15
c2.66699 -3.33301 5.66699 -11 9 -23zM33 52.9951c0 -24 8.33105 -36 24.998 -36c28.667 0 76.334 39.333 143.001 118c12 14 52 66.333 120 157c-4.66699 8 -12.667 12 -24 12c-41.333 0 -95.666 -31.5 -162.999 -94.5s-101 -115.167 -101 -156.5z" />
    <glyph glyph-name="e" unicode="e" horiz-adv-x="257" 
d="M51 -13c-7.33301 0 -14.0029 0.999023 -20.0029 2.99902c-42.667 12 -64 36 -64 72c0 46.667 29.333 100.667 88 162s111.334 92 158.001 92c15.333 0 27.833 -4.16699 37.5 -12.5s14.5 -18.5 14.5 -30.5c0 -37.333 -28.167 -73 -84.5 -107s-102.166 -51 -137.499 -51
c-5.33301 0 -10 0.666992 -14 2c-10 -18 -15 -37 -15 -57c0 -34.667 16.5 -52 49.5 -52s75.833 22.333 128.5 67c40.667 32.667 75.334 67.334 104.001 104.001c6 8 11.167 12 15.5 12s6.5 -2 6.5 -6s-2.66699 -9.66699 -8 -17c-36 -47.333 -79.333 -89.333 -130 -126
s-93.667 -55 -129 -55zM239.997 274.999c0 8 -8.49902 12 -25.499 12s-41.167 -13 -72.5 -39c-42 -34.667 -74.667 -71 -98 -109c4 -1.33301 8.33301 -2 13 -2c25.333 0 59.166 13.5 101.499 40.5s68.833 56.5 79.5 88.5c1.33301 3.33301 2 6.33301 2 9z" />
    <glyph glyph-name="f" unicode="f" horiz-adv-x="242" 
d="M408 489c0 -20.667 -6.00098 -31.0039 -18.001 -31.0039c-3.33301 0 -6.66602 2.66699 -9.99902 8c-6 10.667 -16 16 -30 16c-30.667 0 -59.334 -22 -86.001 -66c-5.33301 -8.66699 -22 -40 -50 -94h12c72.667 0 121 1 145 3c2.66699 -0.666992 4 -2 4 -4
c0 -5.33301 -23.667 -12.666 -71 -21.999c-44.667 -7.33301 -81.334 -13.666 -110.001 -18.999l-75 -152c-60 -112 -99.667 -181.667 -119 -209c-58 -82.667 -114.667 -124 -170 -124c-19.333 0 -36.166 8.16699 -50.499 24.5s-21.833 34.5 -22.5 54.5c2 8 5 12 9 12
c2 0 3.33301 -2.33301 4 -7c4 -17.333 10.667 -30.666 20 -39.999s19 -14 29 -14c56.667 0 108.334 35 155.001 105c26.667 40 63 112 109 216l54 130c-66.667 0.666992 -100 8.66699 -100 24c0 6.66699 3.16699 12.334 9.5 17.001s11.833 7 16.5 7l94 -2
c65.333 145.333 125.333 218 180 218c20.667 0 41.667 -10 63 -30c5.33301 -5.33301 8 -12.333 8 -21z" />
    <glyph glyph-name="g" unicode="g" horiz-adv-x="370" 
d="M334 305l13.999 2.99902c8.66699 0 15.5 -2.66699 20.5 -8s7.5 -9.5 7.5 -12.5s-0.333008 -6.33301 -1 -10s-10.334 -20.5 -29.001 -50.5l-58 -103c-54 -100.667 -95.333 -169.667 -124 -207c-61.333 -81.333 -119.666 -122 -174.999 -122
c-19.333 0 -36.166 8.16699 -50.499 24.5s-21.833 34.5 -22.5 54.5c2 8 5 12 9 12c2 0 3.66699 -2.33301 5 -7c3.33301 -17.333 9.66602 -30.666 18.999 -39.999s18.666 -14 27.999 -14c38 0 78.667 25 122 75c28.667 33.333 60.334 82 95.001 146l50 99l-75 -76
c-48 -46 -80.833 -69 -98.5 -69s-34.5 6 -50.5 18c-18 13.333 -27 31 -27 53c0 48.667 34.167 106.667 102.5 174s130.5 101 186.5 101c22.667 0 37.334 -7.33301 44.001 -22l5 -13.5c1.33301 -3.66699 2.33301 -5.5 3 -5.5zM34.999 58.999c0 -24 8.33105 -36 24.998 -36
c38.667 0 91.334 42.333 158.001 127l106 146c-4 9.33301 -12.333 14 -25 14c-41.333 0 -95.666 -31.833 -162.999 -95.5s-101 -115.5 -101 -155.5z" />
    <glyph glyph-name="h" unicode="h" horiz-adv-x="376" 
d="M237 4c-39.333 0 -58.999 23.002 -58.999 69.002c0 26 9.16699 54.833 27.5 86.5l67.5 111.5c-85.333 -42.667 -162.666 -105.667 -231.999 -189c-38.667 -58 -61.334 -87 -68.001 -87c-19.333 0 -29 5.66699 -29 17c0 6 4 16.667 12 32
c64.667 115.333 113.667 199.666 147 252.999c79.333 127.333 135.333 196.333 168 207c1.33301 0.666992 2.66602 1 3.99902 1c8.66699 0 14.667 -7 18 -21c-2 -14 -36.667 -64.667 -104 -152c-70 -88.667 -109.667 -146.667 -119 -174l129 91c66 46 109.667 69 131 69
s32 -8.33301 32 -25c0 -2.66699 -0.166992 -4.5 -0.5 -5.5s-23.5 -32.5 -69.5 -94.5s-69 -107.667 -69 -137c0 -15.333 5.66699 -23 17 -23c36 1.33301 90 44.666 162 129.999c6 6 10.5 9 13.5 9s4.5 -2 4.5 -6c0 -13.333 -33 -49.333 -99 -108
c-41.333 -36 -69.333 -54 -84 -54z" />
    <glyph glyph-name="i" unicode="i" 
d="M245.5 398.5c9 -6.33301 13.5 -13.832 13.5 -22.499s-4.16699 -16.167 -12.5 -22.5s-17.5 -9.5 -27.5 -9.5s-19.167 3.66699 -27.5 11s-12.5 15.666 -12.5 24.999c0 18.667 12.667 28 38 28c10 0 19.5 -3.16699 28.5 -9.5zM36 -10.999
c-34 0 -50.999 21.998 -50.999 65.998c0 36 19.667 85.833 59 149.5s71 95.834 95 96.501c6.66699 0 14.167 -2.66699 22.5 -8s12.5 -10.666 12.5 -15.999c-3.33301 -4.66699 -7.33301 -9.83398 -12 -15.501l-15 -18.5l-22 -28.5l-27 -35.5
c-50 -64.667 -75 -109.167 -75 -133.5s8.33301 -36.5 25 -36.5c14 0 33 7.66699 57 23c56 34.667 100.333 72.667 133 114c12 15.333 20.167 23 24.5 23s6.5 -2.66699 6.5 -8s-7.66699 -16 -23 -32l-36.5 -38c-9 -9.33301 -15.167 -15.5 -18.5 -18.5l-18.5 -17
c-9 -8.33301 -15.833 -14.166 -20.5 -17.499l-20 -15c-8.66699 -6.66699 -16.334 -11.5 -23.001 -14.5l-23 -10.5c-14 -6 -30.667 -9 -50 -9z" />
    <glyph glyph-name="j" unicode="j" horiz-adv-x="201" 
d="M232.5 400c9 -6.66699 13.5 -14.168 13.5 -22.501s-4.16699 -15.666 -12.5 -21.999s-17.5 -9.5 -27.5 -9.5s-19.167 3.5 -27.5 10.5s-12.5 15.167 -12.5 24.5c0 19.333 12.667 29 38 29c10 0 19.5 -3.33301 28.5 -10zM185 271.999c0 -4 -26.333 -51.333 -79 -142
c-51.333 -98 -91 -166.333 -119 -205c-60.667 -86.667 -117.667 -130 -171 -130c-20 0 -38.5 6.5 -55.5 19.5s-25.5 26 -25.5 39s3 19.5 9 19.5c0.666992 0 7.5 -8.5 20.5 -25.5s28.167 -25.5 45.5 -25.5c53.333 0 114 60.333 182 181c42 75.333 70.667 136.333 86 183
c-8 -9.33301 -21.833 -23 -41.5 -41s-31.667 -27 -36 -27s-6.5 1 -6.5 3c0 6 5.33301 13.667 16 23s25 27 43 53s28.667 40.333 32 43l33 35c13.333 12.667 27.833 19 43.5 19s23.5 -7.33301 23.5 -22z" />
    <glyph glyph-name="k" unicode="k" horiz-adv-x="394" 
d="M205 -12c-52.667 0 -97.3389 41.666 -134.006 124.999c-9.33301 -14 -30.333 -53.333 -63 -118c-24 9.33301 -36 22 -36 38c0 28.667 43 107.334 129 236.001s145 204.334 177 227.001c2.66699 2 8 3 16 3c20.667 0 31 -5.33301 31 -16
c0 -5.33301 -23.167 -35.333 -69.5 -90s-72.166 -87.667 -77.499 -99c60.667 31.333 109 47 145 47c20.667 0 38.334 -8.33301 53.001 -25c14 -14 21 -28.333 21 -43v-6c-5.33301 -38 -32 -69.333 -80 -94c-38.667 -20.667 -74.667 -31 -108 -31s-56.666 4.33301 -69.999 13
c-4 0.666992 -7.16699 -0.333008 -9.5 -3s-2.83301 -6 -1.5 -10c18.667 -82.667 49.667 -124 93 -124c22.667 0 51.834 12.667 87.501 38s72.834 61 111.501 107c4.66699 4.66699 8.83398 7 12.501 7s5.5 -1.83301 5.5 -5.5s-2.33301 -8.83398 -7 -15.501
c-36 -44 -70 -78.667 -102 -104c-48.667 -38 -90 -57 -124 -57zM348.995 293.999c0 5.33301 -3.00098 10.667 -9.00098 16s-12.333 8 -19 8c-36 0 -79.167 -15 -129.5 -45s-81.166 -64 -92.499 -102c6 0 22 -1 48 -3c30 0 69.333 12.333 118 37c56 28 84 57.667 84 89z" />
    <glyph glyph-name="l" unicode="l" horiz-adv-x="243" 
d="M72 20c22 0 50.334 11.667 85.001 35s68.334 55 101.001 95c8 10.667 14.333 16 19 16s7 -2 7 -6s-13.667 -21.333 -41 -52c-66.667 -73.333 -122.334 -110 -167.001 -110c-22 0 -40.667 5.16699 -56 15.5s-23 26.333 -23 48s5.66699 46.834 17 75.501
c19.333 45.333 50.333 102.333 93 171c78 126.667 133.333 190 166 190c6.66699 0 13.5 -2.5 20.5 -7.5s10.833 -10.5 11.5 -16.5l-88.5 -119c-43.667 -58.667 -73.834 -100.834 -90.501 -126.501l-37.5 -57.5c-8.33301 -12.667 -14.5 -22.5 -18.5 -29.5
s-8.66699 -16.167 -14 -27.5c-11.333 -22.667 -17 -44 -17 -64s11 -30 33 -30z" />
    <glyph glyph-name="m" unicode="m" horiz-adv-x="631" 
d="M478 12c-45.333 0 -67.9961 20.998 -67.9961 62.998c0 24 10.667 56.833 32 98.5s43.666 76.834 66.999 105.501c-41.333 -20 -89 -56.167 -143 -108.5s-91.667 -107.166 -113 -164.499c-3.33301 -5.33301 -9 -8 -17 -8c-16 0 -24 9 -24 27
c6.66699 36.667 21.667 78.667 45 126l65 134c-52 -34 -96.167 -70.5 -132.5 -109.5s-70 -78.167 -101 -117.5s-48.5 -59 -52.5 -59c-8.66699 0 -16.167 4 -22.5 12s-9.5 16 -9.5 24c0 12 17.333 56 52 132l-60 -63c-14.667 -14.667 -23.834 -22 -27.501 -22
s-5.5 2.16699 -5.5 6.5s2.66699 9.16602 8 14.499c24.667 24.667 46.667 49.334 66 74.001s51.333 68.667 96 132c7.33301 10 17.666 15 30.999 15s20 -6.33301 20 -19c0 -4.66699 -17.667 -37.167 -53 -97.5s-55 -98.166 -59 -113.499c27.333 30 68.333 70.333 123 121
c82 76 136 114 162 114c8 0 15.333 -2.33301 22 -7s10 -9.83398 10 -15.501s-13 -30.834 -39 -75.501c-25.333 -46 -39.333 -73.333 -42 -82c74 62 111 93.333 111 94c62.667 48.667 107.667 73 135 73c8 0 15.5 -2.5 22.5 -7.5s10.5 -10.833 10.5 -17.5
c0 -1.33301 -21.667 -29.5 -65 -84.5s-67.666 -100.167 -72.999 -135.5c-1.33301 -12 1 -21 7 -27s16.833 -9 32.5 -9s38.667 10.833 69 32.5s61.166 50.834 92.499 87.501c12 13.333 20.167 20 24.5 20s6.5 -1.66699 6.5 -5c0 -4.66699 -3 -10 -9 -16
c-32.667 -39.333 -67.834 -72.833 -105.501 -100.5s-67.167 -41.5 -88.5 -41.5z" />
    <glyph glyph-name="n" unicode="n" horiz-adv-x="403" 
d="M161 316c18 0 27.001 -6.99902 27.001 -20.999c0 -4 -1 -8 -3 -12c-60 -83.333 -96 -146.333 -108 -189c155.333 155.333 249.666 233 282.999 233c3.33301 0.666992 6.33301 1 9 1c18.667 0 28 -8.33301 28 -25c0 -3.33301 -0.666992 -6.66602 -2 -9.99902
s-14.666 -21.333 -39.999 -54c-29.333 -34.667 -54.166 -68 -74.499 -100s-30.5 -58.667 -30.5 -80s4.66699 -32 14 -32c29.333 0 80.333 40.333 153 121c1.33301 1.33301 3.66602 4.33301 6.99902 9c10 12 16 18 18 18s3 -3.33301 3 -10s-4.66699 -15.334 -14 -26.001
c-82.667 -94 -141.334 -141 -176.001 -141c-32.667 0 -49 18 -49 54s13.333 77.333 40 124l64 104c-45.333 -33.333 -85.666 -69.833 -120.999 -109.5s-67.5 -78.167 -96.5 -115.5s-45.833 -56 -50.5 -56c-10 0 -17.833 4.16699 -23.5 12.5s-8.5 18.666 -8.5 30.999
s4.33301 28.833 13 49.5l33 75l-60 -63c-14.667 -14.667 -23.834 -22 -27.501 -22s-5.5 2.16699 -5.5 6.5s2.66699 9.16602 8 14.499c24.667 24.667 46 48.334 64 71.001c17.333 22.667 53 66 107 130c6 8 12.333 12 19 12z" />
    <glyph glyph-name="o" unicode="o" horiz-adv-x="281" 
d="M261 212c0 -23.333 -22.333 -62.334 -67 -117.001c-52.667 -64.667 -97.667 -97 -135 -97h-16c-17.333 0 -31 9 -41 27c-8 12.667 -12 26.667 -12 42c0 40 29.167 96.167 87.5 168.5s105.5 108.5 141.5 108.5c34 0 51 -18 51 -54c0 -9.33301 -1.66699 -21.333 -5 -36
c0.666992 -2 7 -3 19 -3s30.333 6.33301 55 19c-0.666992 -11.333 -27 -27.666 -79 -48.999c0.666992 -2.66699 1 -5.66699 1 -9zM196 263.999c-22.667 0 -54.833 -26.668 -96.5 -80.001s-62.5 -92.666 -62.5 -117.999s8 -38 24 -38c28.667 0 65 26 109 78s66 89.333 66 112
c-10.667 6 -24 21.333 -40 46z" />
    <glyph glyph-name="p" unicode="p" horiz-adv-x="377" 
d="M377 226c0 -54 -30.834 -105.168 -92.501 -153.501s-115.167 -72.5 -160.5 -72.5c-30 0 -51.833 2 -65.5 6s-28.834 16 -45.501 36c-11.333 -9.33301 -26.666 -33.166 -45.999 -71.499s-29 -71.166 -29 -98.499c0 -12.667 6.33301 -29.334 19 -50.001
c1.33301 -3.33301 0.333008 -6.16602 -3 -8.49902s-5.83301 -3.5 -7.5 -3.5s-3.16699 0.333008 -4.5 1c-28 15.333 -42 45.166 -42 89.499s36.833 121 110.5 230s124.5 168.167 152.5 177.5c6.66699 1.33301 11 2 13 2c11.333 0 17 -12.333 17 -37
c6.66699 6.66699 20.334 13 41.001 19c25.333 6.66699 43.333 10 54 10c24 0 44.833 -6.83301 62.5 -20.5s26.5 -32.167 26.5 -55.5zM325.999 235.999c0 25.333 -15.001 37.998 -45.001 37.998s-57.333 -6.33301 -82 -19c-11.333 -5.33301 -42.666 -34.666 -93.999 -87.999
s-77 -87.666 -77 -102.999c0 -12 9.16699 -21 27.5 -27s36.833 -9 55.5 -9c36.667 0 81.667 20.833 135 62.5s80 90.167 80 145.5z" />
    <glyph glyph-name="q" unicode="q" horiz-adv-x="332" 
d="M123 48c-42.667 -29.333 -76.667 -43.999 -102 -43.999c-32.667 0 -49 18 -49 54c0 28 17.667 62.667 53 104c31.333 34.667 62.333 60.667 93 78c73.333 40.667 133 61 179 61c14.667 0 23.667 -5.66699 27 -17v-32c11.333 -8.66699 17 -14.167 17 -16.5
s-1 -4.83301 -3 -7.5l-79 -75c-50 -51.333 -84.333 -98.333 -103 -141c4 1.33301 15 2 33 2s32 -7.83301 42 -23.5s15 -31.167 15 -46.5c0 -32 -14 -69.667 -42 -113c-30.667 -48.667 -64 -73 -100 -73c-34.667 0 -52 25.667 -52 77c0 31.333 8.33301 66.666 25 105.999z
M273 251.001c-34 0 -85.1689 -22.167 -153.502 -66.5s-107.166 -89.5 -116.499 -135.5c-0.666992 -2 -1 -4 -1 -6c0 -12.667 8 -19 24 -19c33.333 0 78 29 134 87l126 134c-1.33301 4 -5.66602 6 -12.999 6zM145.998 -8.99902
c-12.667 -20 -26.334 -48.6699 -41.001 -86.0029s-22 -62.666 -22 -75.999s2.66699 -25.166 8 -35.499s12.666 -15.5 21.999 -15.5c24.667 0 46.334 21.333 65.001 64s28 74.667 28 96s-4.66699 35.333 -14 42s-24.666 10.334 -45.999 11.001z" />
    <glyph glyph-name="r" unicode="r" horiz-adv-x="394" 
d="M204 -5c-50 0 -75 27.667 -75 83c0 28 7.33301 58.667 22 92s30.667 61.333 48 84c-3.33301 -0.666992 -7.66602 -1 -12.999 -1c-16 0 -29.333 11.333 -40 34l-74 -96c-41.333 -51.333 -65.333 -77 -72 -77c-3.33301 0 -5 1.33301 -5 4
c0 6.66699 5.66699 16.334 17 29.001c58 67.333 99 124.333 123 171c15.333 58 34.666 87 57.999 87c15.333 0 23 -6.66699 23 -20s-8.33301 -30.333 -25 -51l-24 -32c0 -14 10.333 -21 31 -21c12 0 25.333 4.33301 40 13l26 16c1.33301 0.666992 4.66602 1 9.99902 1
s11 -3.33301 17 -10s8 -12.667 6 -18l-69 -87c-42.667 -54.667 -64 -97.834 -64 -129.501s14.667 -47.5 44 -47.5c30.667 0 68.334 16.333 113.001 49c26.667 19.333 51 41 73 65c20.667 24 32 36 34 36c4.66699 0 7 -2.5 7 -7.5s-3 -10.833 -9 -17.5l-32 -36
c-18 -18.667 -38 -36.667 -60 -54c-52.667 -39.333 -96 -59 -130 -59z" />
    <glyph glyph-name="s" unicode="s" horiz-adv-x="359" 
d="M184 15c-19.333 -11.333 -43.167 -17 -71.5 -17s-50 9.33301 -65 28s-27.833 48.334 -38.5 89.001c-12 -12 -20.333 -18 -25 -18c-3.33301 0 -5 2.33301 -5 7s1.66699 8.66699 5 12c22 27.333 59.333 66.666 112 117.999l126 118c36 34 57.333 51 64 51
c21.333 0 32 -8 32 -24c0 -8 -3.16699 -15.833 -9.5 -23.5s-11 -13.667 -14 -18s-6.16699 -8.5 -9.5 -12.5c-12 -20.667 -24.167 -63.334 -36.5 -128.001s-21.833 -109.667 -28.5 -135c55.333 0.666992 112.333 36.667 171 108c6.66699 6.66699 11.667 10 15 10
s5 -2.16699 5 -6.5s-3 -10.166 -9 -17.499c-38.667 -45.333 -74.667 -77 -108 -95c-20 -10 -46 -18.333 -78 -25zM48.999 126c0 -22.667 7.50098 -41.168 22.501 -55.501s31.833 -21.5 50.5 -21.5s33 3.66699 43 11c13.333 7.33301 26.5 38 39.5 92s20.833 101.667 23.5 143
l4 34c-36.667 -27.333 -75.834 -62.666 -117.501 -105.999s-63.167 -72 -64.5 -86c-0.666992 -4 -1 -7.66699 -1 -11z" />
    <glyph glyph-name="t" unicode="t" horiz-adv-x="297" 
d="M261 322l144 1.99902c2 -1.33301 3 -2.33301 3 -3c0 -6 -41.5 -14.333 -124.5 -25s-127.833 -17 -134.5 -19c-12.667 -11.333 -36 -45.166 -70 -101.499s-51 -97.5 -51 -123.5c0 -24.667 17 -37 51 -37c16 0 37 5 63 15s46 19.333 60 28
c37.333 23.333 77.333 57.666 120 102.999c9.33301 9.33301 15.666 14 18.999 14c2 0 3 -2 3 -6s-5 -12 -15 -24c-34.667 -42.667 -73.667 -77 -117 -103c-52 -32 -101.667 -48 -149 -48c-20.667 0 -37.5 4.5 -50.5 13.5s-19.5 27.167 -19.5 54.5s12 64.833 36 112.5
l55 106.5c-9.33301 -2 -17.333 -3 -24 -3c-19.333 0 -29 7.66699 -29 23c0 11.333 8 19.333 24 24c2 0 5 0.333008 9 1h58l41 53c18.667 24 31.334 36 38.001 36s15 -2.66699 25 -8s15 -11.666 15 -18.999s-16 -29 -48 -65c17.333 -0.666992 40 -1 68 -1z" />
    <glyph glyph-name="u" unicode="u" horiz-adv-x="425" 
d="M280 -6c-3.33301 -0.666992 -10.5 -1.00684 -21.5 -1.00684s-22 4.33301 -33 13s-16.5 19.834 -16.5 33.501s2.5 28.834 7.5 45.501s8.5 29.334 10.5 38.001c-76.667 -89.333 -136.667 -134 -180 -134c-27.333 0 -42.333 17 -45 51v7c0 28.667 17.333 67.334 52 116.001
c-19.333 -17.333 -39 -37.333 -59 -60c-2.66699 -2.66699 -6 -4 -10 -4c-2.66699 0 -4 1.66699 -4 5s3 9 9 17l138 162c17.333 20 35 30 53 30s27 -6 27 -18c0 -4.66699 -2 -9 -6 -13c-26.667 -24.667 -60.167 -65.667 -100.5 -123s-60.5 -99.666 -60.5 -126.999
c0 -12 4 -18 12 -18c28 0 68.667 27.667 122 83c18.667 18.667 53.334 59.834 104.001 123.501s84 95.5 100 95.5c24 0 36 -9.33301 36 -28c0 -6.66699 -14 -26 -42 -58c-38 -46 -67 -83.5 -87 -112.5s-30 -52.5 -30 -70.5s5 -27 15 -27c4.66699 0 10 1.33301 16 4
c46 20 101 66.667 165 140c4 4.66699 8 7 12 7s6 -2.16699 6 -6.5s-2.33301 -9.16602 -7 -14.499c-28.667 -33.333 -62.334 -66.833 -101.001 -100.5s-66 -52.167 -82 -55.5z" />
    <glyph glyph-name="v" unicode="v" horiz-adv-x="301" 
d="M271 393c20 0 36.998 -6.66406 50.998 -19.9971s21 -32 21 -56c0 -52.667 -43.667 -118.667 -131 -198c-74 -66.667 -133.667 -107.334 -179 -122.001c-7.33301 0 -17 4 -29 12s-18 15.333 -18 22c0 14.667 16 64.334 48 149.001s54 132 66 142c2.66699 2.66699 7 4 13 4
s12.333 -3.16699 19 -9.5s10.334 -13.833 11.001 -22.5c0 -0.666992 -16.5 -39.334 -49.5 -116.001s-48.5 -122.334 -46.5 -137.001c28.667 8.66699 79.834 43.667 153.501 105s110.5 116.333 110.5 165c0 29.333 -14.667 50.666 -44 63.999c-4.66699 2 -7 5 -7 9
c0 6 3.66699 9 11 9z" />
    <glyph glyph-name="w" unicode="w" horiz-adv-x="449" 
d="M402 314c0 4 1.99707 6 5.99707 6c12 0 21.333 -7.33301 28 -22c8 -12.667 12 -34.667 12 -66c0 -48 -21 -97.167 -63 -147.5s-87.333 -75.5 -136 -75.5c-23.333 0 -42.166 11.333 -56.499 34s-21.5 46 -21.5 70s5.33301 53.333 16 88
c-19.333 -19.333 -47.666 -52.5 -84.999 -99.5s-62.666 -81.5 -75.999 -103.5c-6.66699 0 -15.834 3.66699 -27.501 11s-17.5 14.333 -17.5 21c0 16 20.333 68.833 61 158.5s71 134.5 91 134.5c7.33301 0 14 -3.5 20 -10.5s9 -12.333 9 -16s-18.167 -38 -54.5 -103
s-54.166 -104.167 -53.499 -117.5l101 122c64.667 74.667 107 112 127 112c7.33301 0 14.5 -3.16699 21.5 -9.5s10.5 -12 10.5 -17s-9.33301 -19.833 -28 -44.5s-34.5 -48.834 -47.5 -72.501s-19.5 -47.5 -19.5 -71.5c0 -42 14 -63 42 -63h13c36 0 68.833 27.5 98.5 82.5
s44.5 99.167 44.5 132.5c0 26.667 -4.33301 47.334 -13 62.001c-1.33301 1.33301 -2 3 -2 5z" />
    <glyph glyph-name="x" unicode="x" horiz-adv-x="427" 
d="M362 44c-48 -40 -87.8281 -59.9971 -119.495 -59.9971s-52.5 23 -62.5 69c-3.33301 18.667 -5.66602 46.667 -6.99902 84c-81.333 -86.667 -142.333 -165 -183 -235c-2 -2.66699 -4.66699 -4 -8 -4c-8 0 -12 3.66699 -12 11c0 2 0.666992 3.66699 2 5
c62 98 129 184 201 258c2.66699 91.333 4.33398 142.666 5.00098 153.999c-15.333 -3.33301 -48 -42 -98 -116c-24.667 -37.333 -46.334 -66 -65.001 -86s-29.834 -31.5 -33.501 -34.5s-7.33398 -4.5 -11.001 -4.5s-5.5 1.66699 -5.5 5s10.667 16.833 32 40.5
s49.666 62.334 84.999 116.001s60.666 87.5 75.999 101.5s29.666 21 42.999 21s23 -1.83301 29 -5.5s8.16699 -10 6.5 -19s-3 -16.833 -4 -23.5s-1.83301 -14.334 -2.5 -23.001c-4 -31.333 -6.33301 -57 -7 -77c32.667 31.333 106.334 95.666 221.001 192.999
c1.33301 1.33301 3.66602 2 6.99902 2s7.66602 -2.83301 12.999 -8.5s8 -11.334 8 -17.001s-2.66699 -11.167 -8 -16.5c-21.333 -17.333 -58.5 -45.166 -111.5 -83.499s-96.833 -73.5 -131.5 -105.5c-0.666992 -14 -1 -33 -1 -57s3 -46 9 -66c8 -26 22.667 -39 44 -39
c38 0 96.667 45.667 176 137c6.66699 6.66699 11.667 10 15 10s5 -2.16699 5 -6.5s-2.66699 -9.5 -8 -15.5c-41.333 -48.667 -74.333 -83.334 -99 -104.001z" />
    <glyph glyph-name="y" unicode="y" horiz-adv-x="370" 
d="M-56 -116c32 -40 59.6709 -59.999 83.0039 -59.999c38 0 79 30.333 123 91c32 44.667 63.333 101 94 169l38 92l-147 -115c-45.333 -35.333 -81.666 -53 -108.999 -53c-14.667 0 -26.334 5 -35.001 15s-13 21.333 -13 34c0 28.667 24.667 75.834 74 141.501
s85.333 98.5 108 98.5s34 -7.66699 34 -23c0 -6 -29.5 -40.5 -88.5 -103.5s-88.5 -105.5 -88.5 -127.5c0 -8.66699 5.66699 -13 17 -13c21.333 0 64.166 25 128.499 75s112.833 91.333 145.5 124c7.33301 8.66699 17.666 21.667 30.999 39c12.667 14.667 26.667 22 42 22
s23 -7.33301 23 -22c0 -2.66699 -15 -26.334 -45 -71.001s-45.667 -68.334 -47 -71.001c-20.667 -40 -52.334 -98.333 -95.001 -175c-64.667 -104 -129.334 -156 -194.001 -156c-21.333 0 -40 9.16699 -56 27.5s-23.667 38.833 -23 61.5z" />
    <glyph glyph-name="z" unicode="z" horiz-adv-x="386" 
d="M67 41c-26.667 -18.667 -45.6689 -27.9941 -57.002 -27.9941c-15.333 0 -23 8.33301 -23 25c0 6 2 13.333 6 22s8 13 12 13c6 0 7.33301 -5 4 -15c-2 -10 1 -15 9 -15s17.667 4 29 12l-38 29c-1.33301 1.33301 -2 3.66602 -2 6.99902s3.33301 8.16602 10 14.499
s11.834 9.5 15.501 9.5s19.834 -11.333 48.501 -34c82.667 93.333 143.334 154.666 182.001 183.999c-52.667 16 -91.667 24 -117 24c-7.33301 0 -14.333 -0.5 -21 -1.5s-13.834 -5 -21.501 -12s-11.5 -14.833 -11.5 -23.5s3.66699 -15.834 11 -21.501s11 -10.167 11 -13.5
s-2.5 -5 -7.5 -5s-13.167 6.66699 -24.5 20c-10.667 13.333 -16 27 -16 41c0 23.333 17 38.666 51 45.999c18 3.33301 36.333 5 55 5s64.667 -12 138 -36c9.33301 5.33301 19.333 8 30 8c28 0 42 -8.33301 42 -25c0 -6.66699 -4.33301 -12.834 -13 -18.501
s-19 -8.5 -31 -8.5s-23 2.33301 -33 7c-63.333 -39.333 -131.333 -101.333 -204 -186l36 -28c28.667 -18.667 62 -28 100 -28s66 6 84 18s27 27.333 27 46c0 8.66699 -1.66699 16.834 -5 24.501s-0.333008 11.5 9 11.5c3.33301 0 6.66602 -3.83301 9.99902 -11.5
s5 -16.834 5 -27.501c0 -26.667 -12.667 -48.667 -38 -66s-58 -26 -98 -26c-44 0 -80.333 8.33301 -109 25c-11.333 6 -29.666 18.667 -54.999 38z" />
    <glyph glyph-name="braceleft" unicode="{" horiz-adv-x="323" 
d="M153 174c0 -22 -5.50195 -56.502 -16.502 -103.502s-16.5 -84.5 -16.5 -112.5s9.33301 -46 28 -54l65 -12l9 -8c-9.33301 -4 -15.666 -6 -18.999 -6c-37.333 0 -65.333 4.66699 -84 14c-26 13.333 -39 38 -39 74c0 23.333 6 58.5 18 105.5s18 82.833 18 107.5
c0 52 -35.667 78.667 -107 80l11 16c47.333 5.33301 80 15 98 29c22.667 16.667 38.334 46.334 47.001 89.001l22 123c10 41.333 27.667 72.333 53 93s65 31 119 31h5h2c4 0 7.66699 -3 11 -9l-13 -5c-51.333 0 -87.333 -14.333 -108 -43
c-14 -19.333 -25.667 -55.666 -35 -108.999c-2.66699 -17.333 -8.66699 -45 -18 -83c-22 -70.667 -60.667 -112.667 -116 -126c44 -16 66 -46.333 66 -91z" />
    <glyph glyph-name="bar" unicode="|" horiz-adv-x="219" 
d="M52 -102c-0.666992 0 -1 0.500977 -1 1.50098s1.33301 7.16699 4 18.5c10 42 20.333 89 31 141c22 128 33 255 33 381c0 52 -2 91.333 -6 118c-8 33.333 -12 53 -12 59s5.66699 9 17 9c26.667 0 40 -29.5 40 -88.5s-9.5 -171.833 -28.5 -338.5
s-36.833 -261.334 -53.5 -284.001c-8 -11.333 -16 -17 -24 -17z" />
    <glyph glyph-name="braceright" unicode="}" horiz-adv-x="425" 
d="M27 -120l-1.00195 -0.000976562c-4 0 -7.66699 3 -11 9c7.33301 3.33301 24.333 6.33301 51 9c45.333 2.66699 77.333 26.667 96 72l39 122c16.667 52.667 36 89 58 109c26.667 26 59.334 44.667 98.001 56c-48.667 12 -73 38.333 -73 79c0 28 8.33301 66.667 25 116
s25 87 25 113s-9 42 -27 48l-59 9l-8 7l14 8c34.667 0 60.667 -3 78 -9c29.333 -10 44 -29.833 44 -59.5s-9.16699 -70.167 -27.5 -121.5s-27.5 -89.333 -27.5 -114s10 -42.667 30 -54c16.667 -8 40 -13.333 70 -16l-13 -17c-58 -1.33301 -99.667 -19 -125 -53
c-14.667 -20.667 -30.667 -63 -48 -127c-14.667 -59.333 -32.667 -101.666 -54 -126.999c-33.333 -39.333 -84.666 -59 -153.999 -59z" />
    <glyph glyph-name="asciitilde" unicode="~" horiz-adv-x="303" 
d="M269 447c0 -10 -12.999 -23.999 -38.999 -41.999c-9.33301 -6 -19.333 -9 -30 -9s-26.834 4.5 -48.501 13.5s-38 13.5 -49 13.5s-21.833 -4.33301 -32.5 -13s-17.667 -13 -21 -13c-0.666992 0.666992 -1 1.66699 -1 3c0 9.33301 14 22.666 42 39.999
c10.667 6.66699 22 10 34 10s28.5 -3.5 49.5 -10.5s38.5 -10.5 52.5 -10.5s26.333 7.33301 37 22c4 0 6 -1.33301 6 -4z" />
    <glyph glyph-name="nbspace" unicode="&#xa0;" horiz-adv-x="198" 
 />
    <glyph glyph-name="exclamdown" unicode="&#xa1;" horiz-adv-x="295" 
d="M252 195c0 -19.333 -12.668 -28.999 -38.001 -28.999c-10 0 -19.5 3.33301 -28.5 10s-13.5 14.167 -13.5 22.5s4.33301 15.666 13 21.999s17.834 9.5 27.501 9.5s18.667 -3.5 27 -10.5s12.5 -15.167 12.5 -24.5zM-9.00098 -214.999c-8 0 -16.833 1.50098 -26.5 4.50098
s-14.5 7.16699 -14.5 12.5c0 2 1.33301 4.33301 4 7c29.333 30.667 70 80.667 122 150c54 69.333 84.667 112.666 92 129.999s14.666 26 21.999 26c3.33301 0 5 -2.33301 5 -7c0 -40 -29.167 -103.833 -87.5 -191.5s-97.166 -131.5 -116.499 -131.5z" />
    <glyph glyph-name="cent" unicode="&#xa2;" horiz-adv-x="295" 
d="M183 268l6 23.001c0 11.333 -8.66699 17 -26 17s-33.666 -12.667 -48.999 -38s-23 -48.333 -23 -69c0 -34 15 -51 45 -51c36.667 0 76 26 118 78c4.66699 6.66699 8.66699 10 12 10s5 -1 5 -3c0 -8 -11.333 -22.333 -34 -43s-42.167 -36.334 -58.5 -47.001
s-35.166 -16 -56.499 -16c-4 0 -9.33301 0.666992 -16 2c-22.667 -30 -45.334 -87 -68.001 -171c-1.33301 -1.33301 -2.33301 -2 -3 -2c-6.66699 0 -10 2.33301 -10 7c0 2.66699 1.66699 12.334 5 29.001c12.667 66 30.667 114.667 54 146c-16 10.667 -24 29.5 -24 56.5
s15.167 56.667 45.5 89s58.166 48.5 83.499 48.5h7c6 12.667 20.833 39 44.5 79s38 61.833 43 65.5s10.167 5.5 15.5 5.5s8 -2.33301 8 -7c0 -2 -5.33301 -10.5 -16 -25.5s-36.667 -56.5 -78 -124.5c3.33301 -3.33301 5 -7.83301 5 -13.5s-4 -15.334 -12 -29.001
s-14.667 -20.5 -20 -20.5c-2 0 -3 1.33301 -3 4z" />
    <glyph glyph-name="sterling" unicode="&#xa3;" horiz-adv-x="881" 
d="M818 118c38 -28 57 -53.832 57 -77.499s-5.66699 -43.5 -17 -59.5s-26.666 -27.667 -45.999 -35c-76 -30 -169.667 -28.667 -281 4c-59.333 17.333 -117.666 41 -174.999 71c-51.333 -32.667 -98.666 -49 -141.999 -49s-83.5 14.167 -120.5 42.5s-55.5 62.5 -55.5 102.5
c0 24.667 14.333 37 43 37c40.667 0 132.334 -36 275.001 -108c45.333 55.333 89.333 145.333 132 270h-161c-8 0 -12 2.66699 -12 8c0 15.333 8 23 24 23h160c52.667 157.333 102.667 263.333 150 318c39.333 44 81.666 66 126.999 66c25.333 0 46 -8.16699 62 -24.5
s24 -37.833 24 -64.5c0 -65.333 -36.333 -115.333 -109 -150c-4.66699 -2.66699 -8.83398 -4 -12.501 -4s-5.5 2.66699 -5.5 8s3.5 10.5 10.5 15.5s13.333 10 19 15s10.167 8.83301 13.5 11.5c35.333 32.667 53 71 53 115c0 15.333 -4.66699 27 -14 35s-21 12 -35 12
s-28.667 -4.83301 -44 -14.5s-30 -23.834 -44 -42.501c-18 -24 -37.333 -53.833 -58 -89.5s-52 -104.5 -94 -206.5h172c5.33301 0 8 -2.33301 8 -7c0 -16 -9.66699 -24 -29 -24h-163c-30 -72.667 -51.333 -122 -64 -148c-30.667 -63.333 -59.334 -107.333 -86.001 -132
c35.333 -22 80.666 -39.333 135.999 -52c54 -14.667 102.167 -22 144.5 -22s79.833 6 112.5 18c46 14.667 69 39.334 69 74.001c0 13.333 -6.16699 26.166 -18.5 38.499s-18.5 20.333 -18.5 24s1.5 5.5 4.5 5.5s5.83301 -1.33301 8.5 -4zM324 28.001
c-17.333 13.333 -51.668 30.167 -103.001 50.5s-83.833 30.5 -97.5 30.5s-20.5 -2.66699 -20.5 -8c0 -27.333 12 -52 36 -74c24.667 -20 54.334 -30 89.001 -30s66.667 10.333 96 31z" />
    <glyph glyph-name="currency" unicode="&#xa4;" horiz-adv-x="518" 
d="M354 508c19.333 -14 28.998 -34.1699 28.998 -60.5029s-7.33301 -49.666 -22 -69.999s-34 -36.166 -58 -47.499c32 -52.667 53 -84.667 63 -96h-33c-2.66699 8.66699 -18.667 38 -48 88c-19.333 -6.66699 -40.666 -10 -63.999 -10s-42.666 3.66699 -57.999 11l-82 -90
h-32l102 96c-23.333 14.667 -35 36.334 -35 65.001c0 46 22.333 82.333 67 109l-53 81l29 9c2.66699 -12 15.667 -39.333 39 -82c26 11.333 52.167 17 78.5 17s48.166 -4 65.499 -12c28.667 28 52.667 53 72 75l23 -9c-1.33301 -1.33301 -6.66602 -6 -15.999 -14z
M313.998 369.497c20.667 19 31 39.833 31 62.5c0 47.333 -24 71 -72 71c-34.667 0 -63 -8.83301 -85 -26.5s-33 -38.167 -33 -61.5s6.83301 -41.5 20.5 -54.5s35 -19.5 64 -19.5s53.833 9.5 74.5 28.5z" />
    <glyph glyph-name="yen" unicode="&#xa5;" horiz-adv-x="549" 
d="M313 308c86 154 129.002 252.336 129.002 295.003c0 30.667 -17.333 46 -52 46s-80.667 -20.167 -138 -60.5s-97.666 -76.5 -120.999 -108.5c-6 -8.66699 -10.333 -8.33398 -13 0.999023c-0.666992 3.33301 -1 8.66602 -1 15.999s4.66699 17 14 29
c30 38 70.833 71.667 122.5 101s98 44 139 44s68.167 -9 81.5 -27c6.66699 -9.33301 10 -21.666 10 -36.999c0 -54.667 -34.333 -138.334 -103 -251.001l-28 -48h6c62.667 66.667 143.667 139 243 217c126 102.667 225.667 154 299 154c20 0 34.667 -3.5 44 -10.5
s14 -13.333 14 -19s-0.666992 -10.167 -2 -13.5s-2.33301 -5 -3 -5l-7 17c-6 10.667 -16.333 16 -31 16c-40 0 -117.5 -41.333 -232.5 -124s-206.833 -159.667 -275.5 -231l138 1c-2 -4.66699 -4.83301 -7.83398 -8.5 -9.50098s-10.834 -3.5 -21.501 -5.5
s-21 -3.66699 -31 -5s-25.667 -3.16602 -47 -5.49902s-40.666 -4.83301 -57.999 -7.5l-27 -29l-18.5 -26.5c-11 -15.667 -18.5 -26.834 -22.5 -33.501l172 5c0.666992 -0.666992 0.5 -2.33398 -0.5 -5.00098s-10.167 -6 -27.5 -10c-43.333 -11.333 -97.333 -18.333 -162 -21
c-56.667 -96 -85 -156.333 -85 -181c0 -9.33301 3.66699 -14 11 -14c11.333 0 35.666 13.333 72.999 40c3.33301 0 4.66602 -2 3.99902 -6c-2.66699 -10 -18.5 -22.167 -47.5 -36.5s-48.833 -21.5 -59.5 -21.5c-24 0 -36 12.667 -36 38c0 32.667 23.333 92.334 70 179.001
l-77 1c-29.333 0 -44 2.33301 -44 7c0 16.667 10.333 25 31 25h106l55 86h-68h-39c-14.667 0.666992 -21.334 4 -20.001 10c4 16 14 24 30 24h115z" />
    <glyph glyph-name="brokenbar" unicode="&#xa6;" horiz-adv-x="219" 
d="M109 444c0 64.667 -1.33301 108.668 -4 132.001s-4 36.666 -4 39.999c0 6.66699 5.66699 10 17 10c26.667 0 40 -30.5 40 -91.5s-1.66699 -131.833 -5 -212.5l-44 2v120zM110 62.001l-0.999023 215.001l42 1c-8.66699 -194 -17.334 -308 -26.001 -342
c-4.66699 -18 -10 -27 -16 -27s-9 4 -9 12s1.66699 25.667 5 53s5 56.666 5 87.999z" />
    <glyph glyph-name="section" unicode="&#xa7;" horiz-adv-x="570" 
d="M159 330c3.33301 -32.667 13.666 -58.001 30.999 -76.001c19.333 -18.667 37.5 -32.167 54.5 -40.5s29.5 -14.166 37.5 -17.499c22.667 -10 46 -19 70 -27c36.667 -14.667 66 -29.667 88 -45c36 12 66.833 30.833 92.5 56.5s38.5 51.667 38.5 78s-11.333 48 -34 65
s-48.5 30 -77.5 39s-60.667 22.167 -95 39.5s-60.166 37 -77.499 59c-36 -13.333 -66.333 -31.5 -91 -54.5s-37 -48.5 -37 -76.5zM5 -46.001c0 -48.667 37.6699 -73.002 113.003 -73.002c67.333 0 134.333 15 201 45c42 16.667 74 41 96 73
c7.33301 10.667 11 20.334 11 29.001c0 27.333 -15 51 -45 71c-16 10 -41.333 22 -76 36l-89 37c-24.667 10.667 -47.167 27.334 -67.5 50.001s-30.5 51 -30.5 85s14.333 67.667 43 101s66 59.333 112 78c-7.33301 16 -11 32 -11 48c0 35.333 17 70.166 51 104.499
s76.667 62.166 128 83.499c56.667 24 111 36 163 36c32 0 52 -6.83301 60 -20.5s12 -26.667 12 -39s-0.833008 -22.666 -2.5 -30.999s-6.16699 -18.666 -13.5 -30.999s-15 -18.833 -23 -19.5c-4.66699 0 -5.66699 4.33301 -3 13c3.33301 22.667 5 36 5 40
c0 34 -24.333 51 -73 51c-29.333 0 -64 -6.5 -104 -19.5s-76.5 -32.167 -109.5 -57.5s-49.5 -52.666 -49.5 -81.999c3.33301 -36.667 17 -65.834 41 -87.501s51.167 -38.167 81.5 -49.5l90.5 -33c71.333 -24 107 -57 107 -99c0 -35.333 -15.667 -70.5 -47 -105.5
s-70.333 -62.167 -117 -81.5c14 -14 21 -28.167 21 -42.5s-3.5 -29 -10.5 -44s-19.167 -30.167 -36.5 -45.5c-34 -30 -69.667 -53.333 -107 -70c-74.667 -36 -146.334 -54 -215.001 -54c-78.667 0 -124.334 27 -137.001 81c-1.33301 6 -2 12 -2 18c0 28 14.667 55 44 81
c26.667 25.333 59 45.666 97 60.999c5.33301 3.33301 10.166 5 14.499 5s7.5 -1.33301 9.5 -4c0 -3.33301 -12 -11 -36 -23s-45 -28 -63 -48c-22 -21.333 -33 -43.666 -33 -66.999z" />
    <glyph glyph-name="dieresis" unicode="&#xa8;" horiz-adv-x="261" 
d="M231 428c-0.666992 0 -5.33203 -6 -13.999 -18l-16 -40c-8 -18 -17 -27 -27 -27c-4.66699 0 -9.33398 3.5 -14.001 10.5s-7 14.333 -7 22s9.66699 18.5 29 32.5c20 14 35.333 21 46 21zM53.002 343c-4.66699 0 -9.33203 3.5 -13.999 10.5s-7 14.333 -7 22
s9.66699 18.5 29 32.5c20 14 35.333 21 46 21c0.666992 0 1.66699 -0.333008 3 -1c-0.666992 0 -5.33398 -6 -14.001 -18l-16 -40c-8 -18 -17 -27 -27 -27zM111.004 427c0 0.666992 -0.333008 1 -1 1h1v-1zM232.004 428v-1l-1 1h1z" />
    <glyph glyph-name="copyright" unicode="&#xa9;" horiz-adv-x="638" 
d="M581 364c0 -77.333 -40.666 -152.499 -121.999 -225.499s-162 -109.5 -242 -109.5c-47.333 0 -88.5 14.167 -123.5 42.5s-52.5 66.166 -52.5 113.499c0 78.667 41.5 154.5 124.5 227.5s164.5 109.5 244.5 109.5c47.333 0 87.666 -14.667 120.999 -44s50 -67.333 50 -114z
M543.001 356.001c0 42.667 -13.334 77.668 -40.001 105.001s-61 41 -103 41c-74.667 0 -147.167 -34.333 -217.5 -103s-105.5 -140.334 -105.5 -215.001c0 -40.667 16 -73.334 48 -98.001c28.667 -24 64 -36 106 -36c70.667 0 140.334 33.333 209.001 100
s103 135.334 103 206.001zM471 410.002c0 -20 -6.00195 -30.666 -18.002 -31.999l-5 4c2 18 3.66699 26.333 5 25c-1.33301 22.667 -13.333 34 -36 34c-52 0 -107 -31.167 -165 -93.5s-87 -119.833 -87 -172.5c0 -32 16.167 -48 48.5 -48s73.833 14 124.5 42
s75.667 43 75 45c2 0 3 -1 3 -3c0 -22.667 -26.667 -44.334 -80 -65.001s-92.666 -31 -117.999 -31s-45.333 5 -60 15c-18 10.667 -27 27 -27 49c0 61.333 32.833 121.833 98.5 181.5s129.834 89.5 192.501 89.5c32.667 0 49 -13.333 49 -40z" />
    <glyph glyph-name="ordfeminine" unicode="&#xaa;" horiz-adv-x="240" 
d="M332 539l14.001 3c7.33301 0 14.333 -3 21 -9s10 -10.667 10 -14s-20.667 -35.5 -62 -96.5s-62 -103.5 -62 -127.5c0 -2 0.333008 -4 1 -6c3.33301 -15.333 10.666 -23 21.999 -23c34.667 0 98 57.333 190 172c2 2.66699 4.33301 4 7 4s4 -2.5 4 -7.5s-3 -11.5 -9 -19.5
c-85.333 -114 -150.333 -171 -195 -171c-6 0 -11.667 1 -17 3c-29.333 11.333 -44 33.333 -44 66c0 11.333 1.33301 22.666 4 33.999l-62 -60c-39.333 -34.667 -67.833 -52 -85.5 -52s-34.5 5.66699 -50.5 17c-18 13.333 -27 31 -27 53c0 48.667 34 106.834 102 174.501
s130.333 101.5 187 101.5c22 0 36.667 -7.66699 44 -23l5 -13.5c1.33301 -3.66699 2.33301 -5.5 3 -5.5zM33.001 293c0 -24 8.33203 -36 24.999 -36c38.667 0 91.334 42.333 158.001 127l106 146c-5.33301 9.33301 -14 14 -26 14c-40.667 0 -94.667 -31.5 -162 -94.5
s-101 -115.167 -101 -156.5z" />
    <glyph glyph-name="guillemotleft" unicode="&#xab;" horiz-adv-x="420" 
d="M270 283c65.333 -82.667 98.002 -127.834 98.002 -135.501s-3 -11.5 -9 -11.5c-1.33301 0 -4.66602 1.33301 -9.99902 4c-16.667 22 -35.334 41.667 -56.001 59l-65 51c-2 1.33301 -3 4.33301 -3 9s16.667 30.834 50 78.501s54.666 77 63.999 88s16.666 16.5 21.999 16.5
s8 -2 8 -6c0 -10 -33 -61 -99 -153zM130.002 283c64.667 -81.333 96.999 -126.168 96.999 -134.501s-2.66699 -12.5 -8 -12.5c-1.33301 0 -4.66602 1.33301 -9.99902 4c-15.333 20.667 -34.333 40.334 -57 59.001l-64 51c-2 1.33301 -3 3.33301 -3 6c0 8 17 35.833 51 83.5
s55.167 76.667 63.5 87s15.333 15.5 21 15.5s8.5 -2 8.5 -6c0 -10 -33 -61 -99 -153z" />
    <glyph glyph-name="logicalnot" unicode="&#xac;" horiz-adv-x="259" 
d="M38 22c0 -25.333 12.333 -40.332 37 -44.999c2 -0.666992 3 -1.33398 3 -2.00098c0 -4.66699 -7.33301 -7 -22 -7c-21.333 0 -36.333 13 -45 39c-5.33301 17.333 -8 34.666 -8 51.999c0 40.667 53 136.334 159 287.001s169.667 226 191 226c27.333 0 41 -5.66699 41 -17
c0 -2 -1.33301 -4.33301 -4 -7c-72.667 -79.333 -149.5 -176.333 -230.5 -291s-121.5 -193 -121.5 -235z" />
    <glyph glyph-name="uni00AD" unicode="&#xad;" horiz-adv-x="297" 
d="M105 260l96.999 -1.00098c38.667 0 66.334 1 83.001 3c0.666992 -0.666992 1 -1.66699 1 -3c0 -10 -26.333 -19.667 -79 -29c-28.667 -4 -55.5 -8.16699 -80.5 -12.5s-41 -6.5 -48 -6.5s-18.667 1.5 -35 4.5s-24.5 9.5 -24.5 19.5c0 6.66699 2.83301 12.334 8.5 17.001
s10.5 7 14.5 7s8 0.333008 12 1h26h25z" />
    <glyph glyph-name="registered" unicode="&#xae;" horiz-adv-x="638" 
d="M581 364c0 -77.333 -40.666 -152.499 -121.999 -225.499s-162 -109.5 -242 -109.5c-47.333 0 -88.5 14.167 -123.5 42.5s-52.5 66.166 -52.5 113.499c0 78.667 41.5 154.5 124.5 227.5s164.5 109.5 244.5 109.5c47.333 0 87.666 -14.667 120.999 -44s50 -67.333 50 -114z
M543.001 356.001c0 42.667 -13.335 77.6641 -40.002 104.997s-61 41 -103 41c-73.333 0 -144.666 -32.667 -213.999 -98c60 23.333 116.333 35 169 35c32 0 60 -5 84 -15c33.333 -13.333 50 -33.666 50 -60.999c0 -33.333 -23.667 -59.666 -71 -78.999
c-34 -14 -72 -21.667 -114 -23c8.66699 -31.333 20.667 -59.666 36 -84.999c20.667 -34 43.334 -51.667 68.001 -53c90 72 135 149.667 135 233zM463.999 369.998c0 38 -37.668 57.002 -113.001 57.002c-25.333 0 -57.833 -5.83301 -97.5 -17.5s-72.167 -24.167 -97.5 -37.5
c-52.667 -62.667 -79 -125.334 -79 -188.001c0 -40.667 16 -73.334 48 -98.001c28.667 -24 66.5 -36 113.5 -36s97.167 19.333 150.5 58c-24.667 6 -47.667 25.5 -69 58.5s-36.666 65.5 -45.999 97.5c-6 0 -10 1 -12 3l11 4l7 5l9 -3c116.667 16 175 48.333 175 97z
M149.998 76c-7.33301 0 -11.001 13.3311 -11.001 39.998s26.667 78.667 80 156c43.333 64.667 82.333 114.334 117 149.001l22 -11c-2 -3.33301 -20.333 -27.166 -55 -71.499s-60.667 -79.5 -78 -105.5c-42 -61.333 -65.667 -110 -71 -146
c-1.33301 -7.33301 -2.66602 -11 -3.99902 -11z" />
    <glyph glyph-name="macron" unicode="&#xaf;" horiz-adv-x="500" 
d="M220 616c10.667 5.33301 43.5 8 98.5 8s90.5 -4 106.5 -12c2 -1.33301 3 -2.33301 3 -3c0 -3.33301 -2 -5 -6 -5c-20.667 0 -51 -2 -91 -6s-70 -6 -90 -6c-3.33301 0 -7.5 3 -12.5 9s-7.83301 11 -8.5 15z" />
    <glyph glyph-name="degree" unicode="&#xb0;" horiz-adv-x="283" 
d="M237 406c0 -24 -8.49902 -44.333 -25.499 -61s-37.333 -25 -61 -25s-43.834 8.33301 -60.501 25s-25 37 -25 61s8.33301 44.333 25 61s37 25 61 25s44.333 -8.33301 61 -25s25 -37 25 -61zM215.001 406c0 17.333 -6.33301 32.333 -19 45s-27.667 19 -45 19
s-32.333 -6.33301 -45 -19s-19 -27.667 -19 -45s6.33301 -32.333 19 -45s27.667 -19 45 -19s32.333 6.33301 45 19s19 27.667 19 45z" />
    <glyph glyph-name="plusminus" unicode="&#xb1;" horiz-adv-x="438" 
d="M219 290l-138.999 -5.00293c-4 0 -8 2.33301 -12 7s-6.33301 9.33398 -7 14.001l5 5c27.333 2.66699 56.833 4 88.5 4h64.5l-6 138c0 4 2.5 8 7.5 12s9.83301 6 14.5 6l5 -5c2.66699 -26.667 4 -55.667 4 -87v-64c53.333 -1.33301 104.666 -3.66602 153.999 -6.99902
c4 -2 6 -4 6 -6v-4l-9 -6c-52 0 -102.333 -0.333008 -151 -1c-0.666992 -89.333 -2.5 -137.166 -5.5 -143.499s-6.16699 -9.5 -9.5 -9.5c-6.66699 0 -10 33.333 -10 100v52zM112.001 88.9971c10.667 5.33301 43.5 8 98.5 8s90.5 -4 106.5 -12c2 -0.666992 3 -1.66699 3 -3
c0 -3.33301 -2 -5 -6 -5c-20.667 0 -51 -2 -91 -6s-70 -6 -90 -6c-3.33301 0 -7.5 3 -12.5 9s-7.83301 11 -8.5 15z" />
    <glyph glyph-name="twosuperior" unicode="&#xb2;" horiz-adv-x="455" 
d="M432 702c-2.66699 -32.667 -21.332 -67.002 -55.999 -103.002c-16 -16.667 -44.5 -41.167 -85.5 -73.5s-98.5 -67.833 -172.5 -106.5c19.333 -2 50.833 -10.333 94.5 -25s75.834 -22 96.501 -22s38.834 3.5 54.501 10.5s23.5 17.167 23.5 30.5
c0 16 -12.333 28.333 -37 37c-2.66699 2 -4 3.66699 -4 5c0 5.33301 3.33301 7 10 5c33.333 -10 50 -26 50 -48c0 -18.667 -10 -33.667 -30 -45s-41.5 -17 -64.5 -17s-51.5 5.66699 -85.5 17l-83 30c-19.333 5.33301 -34.333 8 -45 8c-45.333 -19.333 -73 -29 -83 -29
s-15 3.66699 -15 11c0 8.66699 5 16.334 15 23.001c16 11.333 37.667 17 65 17c7.33301 0 15 -0.333008 23 -1c96.667 59.333 158.167 99.333 184.5 120s47.166 40.667 62.499 60c19.333 22.667 30.333 48.667 33 78c0 22 -13.333 33 -40 33s-58.834 -8.66699 -96.501 -26
s-67.5 -35.666 -89.5 -54.999c-2.66699 -1.33301 -5.33398 -2 -8.00098 -2s-4 2.16699 -4 6.5s1.33301 6.83301 4 7.5c28.667 24.667 65.667 47 111 67s85.333 30 120 30s52 -14.333 52 -43z" />
    <glyph glyph-name="threesuperior" unicode="&#xb3;" horiz-adv-x="476" 
d="M65 475l-3.00195 -21.002c0 -34.667 24 -56.334 72 -65.001c12.667 -2 25 -3 37 -3c35.333 0 71 8.33301 107 25c56 26 94 63.333 114 112c2.66699 6 4 13 4 21c0 15.333 -8 26.666 -24 33.999s-36 11 -60 11s-40.667 -1.83301 -50 -5.5s-16.333 -5.5 -21 -5.5
c-7.33301 0 -11 3.33301 -11 10c0 4.66699 1.83301 8.83398 5.5 12.501s7.83398 5.5 12.501 5.5c34 0 66 5.66699 96 17c38.667 14.667 60.334 36.334 65.001 65.001c0.666992 2 1 4.33301 1 7c0 17.333 -11 26 -33 26s-47.5 -5.66699 -76.5 -17
s-47.333 -19.666 -55 -24.999s-12.667 -8 -15 -8s-3.5 4.16699 -3.5 12.5s4 13.5 12 15.5c8.66699 2.66699 18.5 9.16699 29.5 19.5s17.833 15.5 20.5 15.5c2 -1.33301 3 -3 3 -5s-1 -4.33301 -3 -7c-0.666992 0 -2.33398 -1.33301 -5.00098 -4c43.333 18 79 27 107 27
c39.333 0 58.333 -18 57 -54c-2 -34.667 -38 -63 -108 -85c60.667 -6.66699 91 -28 91 -64c0 -4.66699 -1 -10 -3 -16c-12 -47.333 -47.333 -86 -106 -116c-52.667 -25.333 -109 -38 -169 -38c-39.333 0 -71.5 6.33301 -96.5 19s-37.5 30.334 -37.5 53.001
c0 12 4.33301 26 13 42s28 30.667 58 44c25.333 10 43.833 15 55.5 15s17.5 -1.33301 17.5 -4c0 -4 -4.66699 -6 -14 -6s-24 -6 -44 -18c-21.333 -14 -34.666 -28 -39.999 -42z" />
    <glyph glyph-name="acute" unicode="&#xb4;" horiz-adv-x="221" 
d="M55 259c-4.66699 0 -6.99902 1.66699 -6.99902 5s1.33301 6 4 8l105 81c7.33301 6 13 9 17 9c6 0 9 -4 9 -12s-2.66699 -14.667 -8 -20c-6 -4.66699 -26.333 -17.667 -61 -39s-54.334 -32 -59.001 -32z" />
    <glyph glyph-name="mu" unicode="&#xb5;" horiz-adv-x="425" 
d="M9 11c-33.333 -58 -49.999 -104.338 -49.999 -139.005c0 -12.667 6.33301 -29.334 19 -50.001c1.33301 -3.33301 0.333008 -6.16602 -3 -8.49902s-5.83301 -3.5 -7.5 -3.5s-3.16699 0.333008 -4.5 1c-28 15.333 -42 45.166 -42 89.499s37.667 122.166 113 233.499l13 20
l-45 -41c-4 -4 -7.66699 -6 -11 -6s-5 1.83301 -5 5.5s3.33301 8.83398 10 15.501l132 155c18 20 35.833 30 53.5 30s26.5 -6 26.5 -18c0 -4.66699 -4.33301 -11.167 -13 -19.5s-21.667 -22.5 -39 -42.5c-5.33301 -8 -14 -19.667 -26 -35
c-12.667 -16.667 -20 -26.667 -22 -30c-44.667 -63.333 -67 -108.666 -67 -135.999c0 -12 4 -18 12 -18c12.667 0 35.334 12.667 68.001 38l54 45c10.667 8 44.667 48.667 102 122c52 64.667 86 97 102 97c24 0 36 -9.33301 36 -28c0 -6.66699 -14 -26 -42 -58
c-38 -46 -67 -83.5 -87 -112.5s-30 -52.5 -30 -70.5s5 -27 15 -27c4.66699 0 10 1.33301 16 4c48 21.333 103 67.333 165 138c4 4.66699 8 7 12 7s6 -1.66699 6 -5c0 -13.333 -33.667 -49.666 -101 -108.999c-43.333 -37.333 -73 -57.666 -89 -60.999
c-3.33301 -0.666992 -10.5 -1 -21.5 -1s-22 4.33301 -33 13s-16.5 19.834 -16.5 33.501s2.5 28.834 7.5 45.501s8.5 29.334 10.5 38.001l-88 -88c-34.667 -30.667 -63.334 -46 -86.001 -46s-37.334 7.33301 -44.001 22z" />
    <glyph glyph-name="paragraph" unicode="&#xb6;" horiz-adv-x="548" 
d="M361 606l107.998 3.99707c17.333 0 30.333 -1.33301 39 -4c26.667 28 55 42 85 42c17.333 0 28 -4.33301 32 -13c-1.33301 -1.33301 -7.83301 -3.16602 -19.5 -5.49902s-20.167 -5.16602 -25.5 -8.49902c-35.333 -20.667 -77.666 -85.667 -126.999 -195l-122 -294
c-54 -127.333 -96.333 -191 -127 -191c-4 0 -6 1.33301 -6 4c1.33301 3.33301 6 8.66602 14 15.999c36 34 76 116.333 120 247l67 200c30.667 80 63.667 141.333 99 184h-10c-46.667 0 -99.334 -62 -158.001 -186c-25.333 -52 -59 -136.667 -101 -254
c-25.333 -69.333 -59.666 -135.666 -102.999 -198.999c-58.667 -86.667 -112.667 -130 -162 -130c-9.33301 0 -14.666 3 -15.999 9c2 4 5.33301 6 10 6c58.667 0 118 61 178 183c20 42 54.667 130 104 264c-102.667 8.66699 -154 46.334 -154 113.001
c0 57.333 30.833 106.333 92.5 147s122.5 61 182.5 61z" />
    <glyph glyph-name="periodcentered" unicode="&#xb7;" 
d="M154.5 337c9 -6.66699 13.5 -14.168 13.5 -22.501s-4.16699 -15.666 -12.5 -21.999s-17.5 -9.5 -27.5 -9.5s-19.167 3.5 -27.5 10.5s-12.5 15.167 -12.5 24.5c0 19.333 12.667 29 38 29c10 0 19.5 -3.33301 28.5 -10z" />
    <glyph glyph-name="cedilla" unicode="&#xb8;" horiz-adv-x="224" 
d="M173 -181c0 -31.333 -16.167 -55.6641 -48.5 -72.9971s-65.833 -26 -100.5 -26c-6 0 -9 3.66699 -9 11c0 3.33301 3 6 9 8c32 5.33301 56 9 72 11c23.333 7.33301 35 26.666 35 57.999c0 8.66699 -8.66699 25.5 -26 50.5s-26 43.833 -26 56.5
c0 23.333 6.5 43.666 19.5 60.999s29.833 26 50.5 26c7.33301 0 11.333 -2.33301 12 -7c-14 -2.66699 -25.167 -9.83398 -33.5 -21.501s-12.5 -25.5 -12.5 -41.5c0 -7.33301 9.66699 -23.5 29 -48.5s29 -46.5 29 -64.5z" />
    <glyph glyph-name="onesuperior" unicode="&#xb9;" horiz-adv-x="349" 
d="M181 418c4 0 6 -2.00195 6 -6.00195c0 -6 -3 -9 -9 -9c-28.667 0 -54.334 -3.66699 -77.001 -11s-43.5 -15 -62.5 -23s-29.333 -12 -31 -12s-3.5 1.5 -5.5 4.5s-3 7.16699 -3 12.5s3.5 9.33301 10.5 12s25.5 9.33398 55.5 20.001l151 275
c-20.667 -13.333 -48.667 -26.666 -84 -39.999c-6 -2 -9 0 -9 6c0 3.33301 1.66699 6 5 8c26.667 10 64.667 34 114 72l3 6c4.66699 7.33301 13.334 11 26.001 11s19 -3 19 -9c0 -1.33301 -65 -109.333 -195 -324c25.333 4.66699 54 7 86 7z" />
    <glyph glyph-name="ordmasculine" unicode="&#xba;" horiz-adv-x="191" 
d="M261 446c0 -23.333 -22.333 -62.334 -67 -117.001c-52.667 -64.667 -97.667 -97 -135 -97h-16c-17.333 0 -31 9 -41 27c-8 12.667 -12 26.667 -12 42c0 40 29.167 96.167 87.5 168.5s105.5 108.5 141.5 108.5c34 0 51 -18 51 -54c0 -9.33301 -1.66699 -21.333 -5 -36
c0.666992 -2 7 -3 19 -3s30.333 6.33301 55 19c-0.666992 -11.333 -27 -27.666 -79 -48.999c0.666992 -2.66699 1 -5.66699 1 -9zM196 497.999c-22.667 0 -54.833 -26.668 -96.5 -80.001s-62.5 -92.666 -62.5 -117.999s8 -38 24 -38c28.667 0 65 26 109 78s66 89.333 66 112
c-10.667 6 -24 21.333 -40 46z" />
    <glyph glyph-name="guillemotright" unicode="&#xbb;" horiz-adv-x="420" 
d="M340 288c-65.333 83.333 -98.001 128.667 -98.001 136s3 11 9 11c1.33301 0 4.66602 -1.33301 9.99902 -4c18.667 -26 59 -62.667 121 -110c2 -0.666992 3 -3.5 3 -8.5s-16.667 -31.333 -50 -79s-54.666 -77 -63.999 -88s-16.666 -16.5 -21.999 -16.5s-8 2 -8 6
c0 10 33 61 99 153zM183.999 288.001c-65.333 83.333 -98.001 128.667 -98.001 136s3 11 9 11c1.33301 0 4.66602 -1.33301 9.99902 -4c18.667 -26 59 -62.667 121 -110c2 -0.666992 3 -3.5 3 -8.5s-16.667 -31.333 -50 -79s-54.666 -77 -63.999 -88
s-16.666 -16.5 -21.999 -16.5s-8 2 -8 6c0 10 33 61 99 153z" />
    <glyph glyph-name="onequarter" unicode="&#xbc;" horiz-adv-x="797" 
d="M512 -69c-11.333 0 -16.998 15.3301 -16.998 45.9971s8.66699 69 26 115c-31.333 8.66699 -58.333 13 -81 13s-58 -10 -106 -30c-4.66699 -1.33301 -8.66699 -0.166016 -12 3.50098s-5 9.66699 -5 18s4.33301 14 13 17s20 5.83301 34 8.5
c21.333 11.333 54.166 33 98.499 65s72.5 51.667 84.5 59c81.333 50.667 126.666 85.667 135.999 105l6 8c2 2.66699 5.33301 4 10 4c13.333 0 20 -3.66699 20 -11c0 -1.33301 -0.333008 -2 -1 -2l-105 -152c-23.333 -34.667 -43.333 -66.667 -60 -96
c29.333 -9.33301 51 -14 65 -14s26 3.33301 36 10c11.333 10 17 19.667 17 29s-0.666992 16.333 -2 21s0 7 4 7s7.33301 -2 10 -6c7.33301 -12.667 11 -25 11 -37c0 -27.333 -24.333 -41 -73 -41c-20.667 0 -46.667 5 -78 15c-18.667 -36 -28 -68.333 -28 -97
c0 -13.333 1 -23.666 3 -30.999s3.33301 -12.666 4 -15.999c0 -7.33301 -3.33301 -11 -10 -11zM181.002 417.997c4 0 5.99902 -2.00195 5.99902 -6.00195c0 -6 -3 -9 -9 -9c-28.667 0 -54.334 -3.66699 -77.001 -11s-52.667 -18.666 -90 -33.999
c-3.33301 -1.33301 -6.16602 -0.333008 -8.49902 3s-3.5 7.66602 -3.5 12.999s3.5 9.33301 10.5 12s25.5 9.33398 55.5 20.001l151 275c-20.667 -13.333 -48.667 -26.666 -84 -39.999c-6 -2 -9 0 -9 6c0 3.33301 1.66699 6 5 8c26.667 10 64.667 34 114 72l3 6
c4.66699 7.33301 13.334 11 26.001 11s19 -3 19 -9c0 -1.33301 -65 -109.333 -195 -324c25.333 4.66699 54 7 86 7zM210.001 137.995c-2.66699 -9.33301 -4 -16.667 -4 -22s1.66699 -8.83301 5 -10.5s3.83301 -4.16699 1.5 -7.5s-6.66602 -5 -12.999 -5
s-9.5 6.66699 -9.5 20s5.5 34.5 16.5 63.5s62.167 105.167 153.5 228.5c91.333 120.667 141.666 181 150.999 181c4 0 8 -1.83301 12 -5.5s3 -9.5 -3 -17.5c-54.667 -62.667 -116.5 -140.167 -185.5 -232.5s-110.5 -156.5 -124.5 -192.5zM406.001 127.994
c20 2 37.167 2.99902 51.5 2.99902s38.5 -6.66699 72.5 -20c16 36.667 53.667 97.334 113 182.001c-26.667 -16 -68 -44.167 -124 -84.5z" />
    <glyph glyph-name="onehalf" unicode="&#xbd;" horiz-adv-x="803" 
d="M732 323c-2.66699 -32.667 -21.3311 -67.001 -55.998 -103.001c-16 -16.667 -44.5 -41.167 -85.5 -73.5s-98.5 -67.833 -172.5 -106.5c18.667 -2 50 -10.333 94 -25s76.333 -22 97 -22s38.834 3.5 54.501 10.5s23.5 17.167 23.5 30.5c0 16 -12.333 28.333 -37 37
c-2.66699 2 -4 3.66699 -4 5c0 5.33301 3.33301 7 10 5c33.333 -10 50 -26 50 -48c0 -18.667 -10 -33.667 -30 -45s-41.5 -17 -64.5 -17s-51.5 5.66699 -85.5 17l-83 30c-19.333 5.33301 -34.333 8 -45 8c-45.333 -19.333 -73 -29 -83 -29s-15 4 -15 12s5 15.667 15 23
c16 10.667 37.667 16 65 16c7.33301 0 15 -0.333008 23 -1c96.667 59.333 158.167 99.333 184.5 120s47.166 40.334 62.499 59.001c19.333 23.333 30.333 49.666 33 78.999c0 22 -13.333 33 -40 33s-58.834 -8.66699 -96.501 -26s-67.5 -35.666 -89.5 -54.999
c-2.66699 -1.33301 -5.33398 -2 -8.00098 -2s-4 2.16699 -4 6.5s1.33301 6.83301 4 7.5c28.667 24.667 65.667 47 111 67s85.333 30 120 30s52 -14.333 52 -43zM181.003 417.999c4 0 5.99902 -2.00195 5.99902 -6.00195c0 -6 -3 -9 -9 -9
c-28.667 0 -54.334 -3.66699 -77.001 -11s-52.667 -18.666 -90 -33.999c-3.33301 -1.33301 -6.16602 -0.333008 -8.49902 3s-3.5 7.66602 -3.5 12.999s3.5 9.33301 10.5 12s25.5 9.33398 55.5 20.001l151 275c-20.667 -13.333 -48.667 -26.666 -84 -39.999c-6 -2 -9 0 -9 6
c0 3.33301 1.66699 6 5 8c26.667 10 64.667 34 114 72l3 6c4.66699 7.33301 13.334 11 26.001 11s19 -3 19 -9c0 -1.33301 -65 -109.333 -195 -324c25.333 4.66699 54 7 86 7zM511.002 585.997c4 0 7.33301 -1.33008 10 -3.99707s4 -5.33398 4 -8.00098
s-1.66699 -6.33398 -5 -11.001c-54.667 -62.667 -116.667 -140.334 -186 -233.001c-85.333 -114 -128 -184.333 -128 -211c0 -7.33301 1.66699 -11.833 5 -13.5s3.83301 -4.16699 1.5 -7.5s-6.66602 -5 -12.999 -5s-9.5 6.66699 -9.5 20s5.5 34.5 16.5 63.5
s62.167 105.167 153.5 228.5c91.333 120.667 141.666 181 150.999 181z" />
    <glyph glyph-name="threequarters" unicode="&#xbe;" horiz-adv-x="914" 
d="M65 473l-3.00195 -21.002c0 -34.667 24 -56.334 72 -65.001c12.667 -2 25 -3 37 -3c35.333 0 71 8.33301 107 25c56 26 94 63.333 114 112c2.66699 6 4 13 4 21c0 15.333 -8 26.666 -24 33.999s-36 11 -60 11s-40.667 -1.83301 -50 -5.5s-16.333 -5.5 -21 -5.5
c-7.33301 0 -11 3.33301 -11 10c0 4.66699 1.83301 8.83398 5.5 12.501s7.83398 5.5 12.501 5.5c34 0 66 5.66699 96 17c38.667 14.667 60.334 36.334 65.001 65.001c0.666992 2 1 4.33301 1 7c0 17.333 -11 26 -33 26s-47.5 -5.66699 -76.5 -17
s-47.333 -19.666 -55 -24.999s-12.667 -8 -15 -8s-3.5 4.16699 -3.5 12.5s4 13.5 12 15.5c8.66699 2.66699 18.5 9.16699 29.5 19.5s17.833 15.5 20.5 15.5c2 -1.33301 3 -3 3 -5s-1 -4.33301 -3 -7c-0.666992 0 -2.33398 -1.33301 -5.00098 -4c43.333 18 79 27 107 27
c39.333 0 58.333 -18 57 -54c-2 -34.667 -38 -63 -108 -85c60.667 -6.66699 91 -28 91 -64c0 -4.66699 -1 -10 -3 -16c-12 -47.333 -47.333 -86 -106 -116c-52.667 -25.333 -109 -38 -169 -38c-39.333 0 -71.5 6.33301 -96.5 19s-37.5 30.334 -37.5 53.001
c0 12 4.33301 26 13 42s28 30.667 58 44c25.333 10 43.833 15 55.5 15s17.5 -1.33301 17.5 -4c0 -4 -4.66699 -6 -14 -6s-24 -6 -44 -18c-21.333 -14 -34.666 -28 -39.999 -42zM334.998 137.998c-2.66699 -9.33301 -3.99902 -16.667 -3.99902 -22s1.5 -8.83301 4.5 -10.5
s3.5 -4.16699 1.5 -7.5s-6.16699 -5 -12.5 -5s-9.5 6.66699 -9.5 20s5.5 34.5 16.5 63.5s62.167 105.167 153.5 228.5c91.333 120.667 141.666 181 150.999 181c4 0 8 -1.83301 12 -5.5s3 -9.5 -3 -17.5c-54.667 -62.667 -116.5 -140.167 -185.5 -232.5
s-110.5 -156.5 -124.5 -192.5zM636.999 -69.0029c-11.333 0 -16.998 15.3301 -16.998 45.9971s8.66699 69 26 115c-31.333 8.66699 -58.333 13 -81 13s-58 -10 -106 -30c-4.66699 -1.33301 -8.66699 -0.166016 -12 3.50098s-5 9.66699 -5 18s4.33301 14 13 17
s20 5.83301 34 8.5c21.333 11.333 54.166 33 98.499 65s72.5 51.667 84.5 59c81.333 50.667 126.666 85.667 135.999 105l6 8c2 2.66699 5.33301 4 10 4c13.333 0 20 -3.66699 20 -11c0 -1.33301 -0.333008 -2 -1 -2l-105 -152c-23.333 -34.667 -43.333 -66.667 -60 -96
c29.333 -9.33301 51 -14 65 -14s26 3.33301 36 10c11.333 10 17 19.667 17 29s-0.666992 16.333 -2 21s0 7 4 7s7.33301 -2 10 -6c7.33301 -12.667 11 -25 11 -37c0 -27.333 -24.333 -41 -73 -41c-21.333 0 -47.333 5 -78 15c-18.667 -36 -28 -68.333 -28 -97
c0 -13.333 1 -23.666 3 -30.999s3.33301 -12.666 4 -15.999c0 -7.33301 -3.33301 -11 -10 -11zM531.001 127.994c20 2 37.167 2.99902 51.5 2.99902s38.5 -6.66699 72.5 -20c16 36.667 53.667 97.334 113 182.001c-26.667 -16 -68 -44.167 -124 -84.5z" />
    <glyph glyph-name="questiondown" unicode="&#xbf;" horiz-adv-x="401" 
d="M341 253c0 -19.333 -13 -28.999 -39 -28.999c-9.33301 0 -18.5 3.33301 -27.5 10s-13.5 14.167 -13.5 22.5s4.16699 15.666 12.5 21.999s17.5 9.5 27.5 9.5s19.167 -3.5 27.5 -10.5s12.5 -15.167 12.5 -24.5zM157 -205.999c-110 0 -165.002 31.667 -165.002 95
c0 40.667 17.667 75 53 103c8.66699 6.66699 48.667 30.667 120 72c46.667 26.667 78.667 56.334 96 89.001c6 11.333 11.167 17 15.5 17s6.5 -3 6.5 -9s-0.666992 -11 -2 -15c-16.667 -34.667 -46 -65.667 -88 -93c-60 -37.333 -96.333 -62 -109 -74
c-28.667 -26 -43 -50 -43 -72s12 -39.5 36 -52.5s54.5 -19.5 91.5 -19.5s70.333 8.66699 100 26s47.167 42.666 52.5 75.999c1.33301 8.66699 -2.16699 16.834 -10.5 24.501s-20.166 11.5 -35.499 11.5s-32.666 -10 -51.999 -30c-4.66699 -4.66699 -7.66699 -4.66699 -9 0
c-2 5.33301 -0.666992 10.333 4 15c22 22.667 43.5 34 64.5 34s36.667 -5.16699 47 -15.5s15.5 -22.5 15.5 -36.5v-5c-4 -44.667 -25.833 -79.334 -65.5 -104.001s-80.5 -37 -122.5 -37z" />
    <glyph glyph-name="Agrave" unicode="&#xc0;" horiz-adv-x="1020" 
d="M946 286l96.998 1.99902c24 0 36 -1.66699 36 -5c0 -8.66699 -48.667 -16.334 -146 -23.001c-62 -121.333 -93 -204 -93 -248c0 -30.667 9.66699 -46 29 -46c7.33301 0 16.5 4.5 27.5 13.5s17.667 13.5 20 13.5s3.5 -1.66699 3.5 -5c-3.33301 -12 -13.5 -22 -30.5 -30
s-31.333 -12 -43 -12s-20.834 0.666992 -27.501 2c-16 6 -24 25.333 -24 58c0 67.333 25.667 153 77 257l-120 -3c-89.333 -87.333 -179 -164 -269 -230c-134.667 -98 -240 -147 -316 -147c-4.66699 0 -9.33398 0.333008 -14.001 1
c-102.667 8.66699 -154 61.334 -154 158.001c0 57.333 18 118 54 182c48 85.333 113.667 158.166 197 218.499s158 90.5 224 90.5s99 -24.333 99 -73c0 -32.667 -10 -69 -30 -109s-40.333 -65.333 -61 -76c-2 -0.666992 -4.16699 -1 -6.5 -1s-3.5 0.666992 -3.5 2l33 54
c22.667 35.333 34 66.333 34 93s-5.83301 48.167 -17.5 64.5s-30.167 24.5 -55.5 24.5c-52 0 -114.167 -29 -186.5 -87s-127.333 -129.333 -165 -214s-56.5 -150.667 -56.5 -198c0 -71.333 36.333 -107 109 -107c69.333 0 163.333 44.667 282 134
c52.667 39.333 138.334 113.666 257.001 222.999c-23.333 -1.33301 -45 -3.66602 -65 -6.99902c-42.667 -8 -62.667 -6.66699 -60 4c2.66699 24.667 15.334 37 38.001 37c44 -5.33301 81 -8 111 -8c57.333 52.667 143 139 257 259c76.667 80.667 123.334 121 140.001 121
c7.33301 0 11 -5.66699 11 -17s-3 -29 -9 -53s-12.667 -38.667 -20 -44c-15.333 -10.667 -29.666 -25.167 -42.999 -43.5s-32.333 -52.666 -57 -102.999s-45.667 -91.166 -63 -122.499zM1026 529.999l-255.999 -240h59c14 -0.666992 31.333 -1 52 -1
c19.333 38 67.666 118.333 144.999 241zM1174 734.999c2.66699 -2 4 -4.49805 4 -7.49805s-2 -4.5 -6 -4.5s-23.667 10.667 -59 32s-56 34.166 -62 38.499s-9 10.666 -9 18.999s3.33301 12.5 10 12.5c8 0 48.667 -30 122 -90z" />
    <glyph glyph-name="Aacute" unicode="&#xc1;" horiz-adv-x="1020" 
d="M946 286l96.998 1.99902c24 0 36 -1.66699 36 -5c0 -8.66699 -48.667 -16.334 -146 -23.001c-62 -121.333 -93 -204 -93 -248c0 -30.667 9.66699 -46 29 -46c7.33301 0 16.5 4.5 27.5 13.5s17.667 13.5 20 13.5s3.5 -1.66699 3.5 -5c-3.33301 -12 -13.5 -22 -30.5 -30
s-31.333 -12 -43 -12s-20.834 0.666992 -27.501 2c-16 6 -24 25.333 -24 58c0 67.333 25.667 153 77 257l-120 -3c-89.333 -87.333 -179 -164 -269 -230c-134.667 -98 -240 -147 -316 -147c-4.66699 0 -9.33398 0.333008 -14.001 1
c-102.667 8.66699 -154 61.334 -154 158.001c0 57.333 18 118 54 182c48 85.333 113.667 158.166 197 218.499s158 90.5 224 90.5s99 -24.333 99 -73c0 -32.667 -10 -69 -30 -109s-40.333 -65.333 -61 -76c-2 -0.666992 -4.16699 -1 -6.5 -1s-3.5 0.666992 -3.5 2l33 54
c22.667 35.333 34 66.333 34 93s-5.83301 48.167 -17.5 64.5s-30.167 24.5 -55.5 24.5c-52 0 -114.167 -29 -186.5 -87s-127.333 -129.333 -165 -214s-56.5 -150.667 -56.5 -198c0 -71.333 36.333 -107 109 -107c69.333 0 163.333 44.667 282 134
c52.667 39.333 138.334 113.666 257.001 222.999c-23.333 -1.33301 -45 -3.66602 -65 -6.99902c-42.667 -8 -62.667 -6.66699 -60 4c2.66699 24.667 15.334 37 38.001 37c44 -5.33301 81 -8 111 -8c57.333 52.667 143 139 257 259c76.667 80.667 123.334 121 140.001 121
c7.33301 0 11 -5.66699 11 -17s-3 -29 -9 -53s-12.667 -38.667 -20 -44c-15.333 -10.667 -29.666 -25.167 -42.999 -43.5s-32.333 -52.666 -57 -102.999s-45.667 -91.166 -63 -122.499zM1026 529.999l-255.999 -240h59c14 -0.666992 31.333 -1 52 -1
c19.333 38 67.666 118.333 144.999 241zM1142 721.999c-4.66699 0 -6.99902 1.66699 -6.99902 5s1.33301 6 4 8l105 81c6.66699 6 12.667 9 18 9s8 -4 8 -12s-2.66699 -14.667 -8 -20c-6 -4.66699 -26.333 -17.667 -61 -39s-54.334 -32 -59.001 -32z" />
    <glyph glyph-name="Acircumflex" unicode="&#xc2;" horiz-adv-x="1020" 
d="M946 286l96.998 1.99902c24 0 36 -1.66699 36 -5c0 -8.66699 -48.667 -16.334 -146 -23.001c-62 -121.333 -93 -204 -93 -248c0 -30.667 9.66699 -46 29 -46c7.33301 0 16.5 4.5 27.5 13.5s17.667 13.5 20 13.5s3.5 -1.66699 3.5 -5c-3.33301 -12 -13.5 -22 -30.5 -30
s-31.333 -12 -43 -12s-20.834 0.666992 -27.501 2c-16 6 -24 25.333 -24 58c0 67.333 25.667 153 77 257l-120 -3c-89.333 -87.333 -179 -164 -269 -230c-134.667 -98 -240 -147 -316 -147c-4.66699 0 -9.33398 0.333008 -14.001 1
c-102.667 8.66699 -154 61.334 -154 158.001c0 57.333 18 118 54 182c48 85.333 113.667 158.166 197 218.499s158 90.5 224 90.5s99 -24.333 99 -73c0 -32.667 -10 -69 -30 -109s-40.333 -65.333 -61 -76c-2 -0.666992 -4.16699 -1 -6.5 -1s-3.5 0.666992 -3.5 2l33 54
c22.667 35.333 34 66.333 34 93s-5.83301 48.167 -17.5 64.5s-30.167 24.5 -55.5 24.5c-52 0 -114.167 -29 -186.5 -87s-127.333 -129.333 -165 -214s-56.5 -150.667 -56.5 -198c0 -71.333 36.333 -107 109 -107c69.333 0 163.333 44.667 282 134
c52.667 39.333 138.334 113.666 257.001 222.999c-23.333 -1.33301 -45 -3.66602 -65 -6.99902c-42.667 -8 -62.667 -6.66699 -60 4c2.66699 24.667 15.334 37 38.001 37c44 -5.33301 81 -8 111 -8c57.333 52.667 143 139 257 259c76.667 80.667 123.334 121 140.001 121
c7.33301 0 11 -5.66699 11 -17s-3 -29 -9 -53s-12.667 -38.667 -20 -44c-15.333 -10.667 -29.666 -25.167 -42.999 -43.5s-32.333 -52.666 -57 -102.999s-45.667 -91.166 -63 -122.499zM1026 529.999l-255.999 -240h59c14 -0.666992 31.333 -1 52 -1
c19.333 38 67.666 118.333 144.999 241zM1024 712.999c-14.667 -4 -22.001 -1.66602 -22.001 7.00098c0 2 3.33301 6 10 12c50.667 30.667 83.667 52.667 99 66c20 16.667 32 25 36 25c10 0 29 -15.5 57 -46.5s42.5 -48.333 43.5 -52s1.5 -6.16699 1.5 -7.5
c0 -6.66699 -2.66699 -10 -8 -10s-19.666 10.667 -42.999 32s-42.333 36.333 -57 45c-4 -2.66699 -15.167 -9.66699 -33.5 -21l-51.5 -33c-16 -10.667 -26.667 -16.334 -32 -17.001z" />
    <glyph glyph-name="Atilde" unicode="&#xc3;" horiz-adv-x="1020" 
d="M946 286l96.998 1.99902c24 0 36 -1.66699 36 -5c0 -8.66699 -48.667 -16.334 -146 -23.001c-62 -121.333 -93 -204 -93 -248c0 -30.667 9.66699 -46 29 -46c7.33301 0 16.5 4.5 27.5 13.5s17.667 13.5 20 13.5s3.5 -1.66699 3.5 -5c-3.33301 -12 -13.5 -22 -30.5 -30
s-31.333 -12 -43 -12s-20.834 0.666992 -27.501 2c-16 6 -24 25.333 -24 58c0 67.333 25.667 153 77 257l-120 -3c-89.333 -87.333 -179 -164 -269 -230c-134.667 -98 -240 -147 -316 -147c-4.66699 0 -9.33398 0.333008 -14.001 1
c-102.667 8.66699 -154 61.334 -154 158.001c0 57.333 18 118 54 182c48 85.333 113.667 158.166 197 218.499s158 90.5 224 90.5s99 -24.333 99 -73c0 -32.667 -10 -69 -30 -109s-40.333 -65.333 -61 -76c-2 -0.666992 -4.16699 -1 -6.5 -1s-3.5 0.666992 -3.5 2l33 54
c22.667 35.333 34 66.333 34 93s-5.83301 48.167 -17.5 64.5s-30.167 24.5 -55.5 24.5c-52 0 -114.167 -29 -186.5 -87s-127.333 -129.333 -165 -214s-56.5 -150.667 -56.5 -198c0 -71.333 36.333 -107 109 -107c69.333 0 163.333 44.667 282 134
c52.667 39.333 138.334 113.666 257.001 222.999c-23.333 -1.33301 -45 -3.66602 -65 -6.99902c-42.667 -8 -62.667 -6.66699 -60 4c2.66699 24.667 15.334 37 38.001 37c44 -5.33301 81 -8 111 -8c57.333 52.667 143 139 257 259c76.667 80.667 123.334 121 140.001 121
c7.33301 0 11 -5.66699 11 -17s-3 -29 -9 -53s-12.667 -38.667 -20 -44c-15.333 -10.667 -29.666 -25.167 -42.999 -43.5s-32.333 -52.666 -57 -102.999s-45.667 -91.166 -63 -122.499zM1026 529.999l-255.999 -240h59c14 -0.666992 31.333 -1 52 -1
c19.333 38 67.666 118.333 144.999 241zM1278 798.999c0 -10 -13.334 -24.002 -40.001 -42.002c-8.66699 -5.33301 -18.5 -8 -29.5 -8s-27.333 4.5 -49 13.5s-38 13.5 -49 13.5s-21.833 -4.33301 -32.5 -13s-17.667 -13 -21 -13c-0.666992 0.666992 -1 1.33398 -1 2.00098
c0 10.667 14.333 24.334 43 41.001c10.667 6.66699 21.834 10 33.501 10s28 -3.5 49 -10.5s38.333 -10.5 52 -10.5s26.5 7 38.5 21c4 0 6 -1.33301 6 -4z" />
    <glyph glyph-name="Adieresis" unicode="&#xc4;" horiz-adv-x="1020" 
d="M946 286l96.998 1.99902c24 0 36 -1.66699 36 -5c0 -8.66699 -48.667 -16.334 -146 -23.001c-62 -121.333 -93 -204 -93 -248c0 -30.667 9.66699 -46 29 -46c7.33301 0 16.5 4.5 27.5 13.5s17.667 13.5 20 13.5s3.5 -1.66699 3.5 -5c-3.33301 -12 -13.5 -22 -30.5 -30
s-31.333 -12 -43 -12s-20.834 0.666992 -27.501 2c-16 6 -24 25.333 -24 58c0 67.333 25.667 153 77 257l-120 -3c-89.333 -87.333 -179 -164 -269 -230c-134.667 -98 -240 -147 -316 -147c-4.66699 0 -9.33398 0.333008 -14.001 1
c-102.667 8.66699 -154 61.334 -154 158.001c0 57.333 18 118 54 182c48 85.333 113.667 158.166 197 218.499s158 90.5 224 90.5s99 -24.333 99 -73c0 -32.667 -10 -69 -30 -109s-40.333 -65.333 -61 -76c-2 -0.666992 -4.16699 -1 -6.5 -1s-3.5 0.666992 -3.5 2l33 54
c22.667 35.333 34 66.333 34 93s-5.83301 48.167 -17.5 64.5s-30.167 24.5 -55.5 24.5c-52 0 -114.167 -29 -186.5 -87s-127.333 -129.333 -165 -214s-56.5 -150.667 -56.5 -198c0 -71.333 36.333 -107 109 -107c69.333 0 163.333 44.667 282 134
c52.667 39.333 138.334 113.666 257.001 222.999c-23.333 -1.33301 -45 -3.66602 -65 -6.99902c-42.667 -8 -62.667 -6.66699 -60 4c2.66699 24.667 15.334 37 38.001 37c44 -5.33301 81 -8 111 -8c57.333 52.667 143 139 257 259c76.667 80.667 123.334 121 140.001 121
c7.33301 0 11 -5.66699 11 -17s-3 -29 -9 -53s-12.667 -38.667 -20 -44c-15.333 -10.667 -29.666 -25.167 -42.999 -43.5s-32.333 -52.666 -57 -102.999s-45.667 -91.166 -63 -122.499zM1026 529.999l-255.999 -240h59c14 -0.666992 31.333 -1 52 -1
c19.333 38 67.666 118.333 144.999 241zM1273 821.999c-0.666992 0 -5.33203 -6 -13.999 -18l-16 -40c-8 -18 -17 -27 -27 -27c-4.66699 0 -9.33398 3.5 -14.001 10.5s-7 14.333 -7 22s9.66699 18.5 29 32.5c20 14 35.333 21 46 21zM1095 736.999
c-4.66699 0 -9.33203 3.5 -13.999 10.5s-7 14.333 -7 22s9.66699 18.5 29 32.5c20 14 35.333 21 46 21c0.666992 0 1.66699 -0.333008 3 -1c-0.666992 0 -5.33398 -6 -14.001 -18l-16 -40c-8 -18 -17 -27 -27 -27zM1274 821.999v-1l-1 1h1zM1153 821.999v-1l-1 1h1z" />
    <glyph glyph-name="Aring" unicode="&#xc5;" horiz-adv-x="1020" 
d="M706 263c-23.333 -1.33301 -45 -3.66699 -65 -7c-42.667 -8 -62.667 -6.66699 -60 4c2.66699 24.667 15.334 37 38.001 37c44 -5.33301 81 -8 111 -8c57.333 52.667 143 139 257 259c58 61.333 99 99.333 123 114c-10.667 6 -16 16.833 -16 32.5s3.66699 31.5 11 47.5
s16.666 25.667 27.999 29c11.333 21.333 28.333 32 51 32c12 0 22.167 -5.16699 30.5 -15.5s12.5 -25 12.5 -44s-9.5 -38.167 -28.5 -57.5s-39.5 -29 -61.5 -29c0.666992 -2 1 -6.16699 1 -12.5s-3 -21.5 -9 -45.5s-12.667 -38.667 -20 -44
c-15.333 -10.667 -29.666 -25.167 -42.999 -43.5s-32.333 -52.666 -57 -102.999s-45.667 -91.166 -63 -122.499l97 2c24 0 36 -1.66699 36 -5c0 -8.66699 -48.667 -16.334 -146 -23.001c-62 -121.333 -93 -204 -93 -248c0 -30.667 9.66699 -46 29 -46
c7.33301 0 16.5 4.5 27.5 13.5s17.667 13.5 20 13.5s3.5 -1.66699 3.5 -5c-3.33301 -12 -13.5 -22 -30.5 -30s-31.333 -12 -43 -12s-20.834 0.666992 -27.501 2c-16 6 -24 25.333 -24 58c0 67.333 25.667 153 77 257l-120 -3c-89.333 -87.333 -179 -164 -269 -230
c-134.667 -98 -240 -147 -316 -147c-4.66699 0 -9.33398 0.333008 -14.001 1c-102.667 8.66699 -154 61.334 -154 158.001c0 57.333 18 118 54 182c48 85.333 113.667 158.166 197 218.499s158 90.5 224 90.5s99 -24.333 99 -73c0 -32.667 -10 -69 -30 -109
s-40.333 -65.333 -61 -76c-2 -0.666992 -4.16699 -1 -6.5 -1s-3.5 0.666992 -3.5 2l33 54c22.667 35.333 34 66.333 34 93s-5.83301 48.167 -17.5 64.5s-30.167 24.5 -55.5 24.5c-52 0 -114.167 -29 -186.5 -87s-127.333 -129.333 -165 -214s-56.5 -150.667 -56.5 -198
c0 -71.333 36.333 -107 109 -107c69.333 0 163.333 44.667 282 134c52.667 39.333 138.334 113.666 257.001 222.999zM1026 529.999l-255.999 -240h59c14 -0.666992 31.333 -1 52 -1c19.333 38 67.666 118.333 144.999 241zM1186 699.499
c11.333 15.667 17.001 33.833 17.001 54.5s-7.33301 31 -22 31c-8 0 -17.667 -4.33301 -29 -13l11 -6c-0.666992 -2 -6.16699 -10.833 -16.5 -26.5s-15.5 -30.167 -15.5 -43.5s5 -20 15 -20c15.333 0 28.666 7.83301 39.999 23.5z" />
    <glyph glyph-name="AE" unicode="&#xc6;" horiz-adv-x="1400" 
d="M1131 606c74.667 38.667 150.663 58.0039 227.996 58.0039c38 0 68.5 -6.16699 91.5 -18.5s34.5 -31.333 34.5 -57s-9.5 -47.334 -28.5 -65.001s-38.833 -26.5 -59.5 -26.5s-31 5 -31 15c0 6 4.33301 9 13 9l20 -3c13.333 0 25.5 7.16699 36.5 21.5
s16.5 29.166 16.5 44.499c0 22.667 -13 39.334 -39 50.001c-16.667 6.66699 -32.334 10 -47.001 10s-25 -0.333008 -31 -1c-56.667 -3.33301 -112.667 -23.333 -168 -60c-64 -42 -96 -89.333 -96 -142c0 -19.333 6.66699 -37.333 20 -54c42.667 13.333 83.334 20 122.001 20
c65.333 0 98 -12.333 98 -37c0 -5.33301 -2 -11.333 -6 -18c-16 -24.667 -45 -37 -87 -37c-27.333 0 -55.166 4.83301 -83.499 14.5s-50.166 19.834 -65.499 30.501c-18 -5.33301 -54.667 -21.333 -110 -48l-13 -26c-41.333 -80.667 -62 -151 -62 -211c0 -26 5 -48 15 -66
c16 -28 39.667 -44.333 71 -49c12 -2 26.333 -3 43 -3s40.167 3 70.5 9s62.666 17.5 96.999 34.5s62.166 35.167 83.499 54.5c52.667 46.667 79 95.667 79 147c0 40.667 -19.667 61 -59 61c-47.333 0 -101.666 -25.333 -162.999 -76
c-15.333 -12.667 -28.333 -28.667 -39 -48s-16 -38.333 -16 -57s9.33301 -30.334 28 -35.001c6.66699 -2.66699 10 -6 10 -10c0 -6.66699 -6.66699 -9.33398 -20 -8.00098c-32 0.666992 -48 21.667 -48 63s21 80 63 116c57.333 49.333 118 74 182 74
c28.667 0 52.334 -7.33301 71.001 -22s28 -36.334 28 -65.001c0 -64.667 -34.333 -123 -103 -175c-24 -18 -54 -34.333 -90 -49c-54 -22 -110 -33 -168 -33c-20.667 0 -40.667 1.66699 -60 5c-35.333 6 -65 22.667 -89 50c-26.667 30 -40 70.333 -40 121
c0 23.333 4.33301 50 13 80c9.33301 31.333 19 54.333 29 69l-120 -3c-89.333 -87.333 -179 -164 -269 -230c-134.667 -98 -240 -147 -316 -147c-4.66699 0 -9.33398 0.333008 -14.001 1c-102.667 8.66699 -154 61.334 -154 158.001c0 57.333 18 118 54 182
c48 85.333 113.667 158.166 197 218.499s158 90.5 224 90.5s99 -24.333 99 -73c0 -32.667 -10 -69 -30 -109s-40.333 -65.333 -61 -76c-2 -0.666992 -4.16699 -1 -6.5 -1s-3.5 0.666992 -3.5 2l33 54c22.667 35.333 34 66.333 34 93s-5.83301 48.167 -17.5 64.5
s-30.167 24.5 -55.5 24.5c-52 0 -114.167 -29 -186.5 -87s-127.333 -129.333 -165 -214s-56.5 -150.667 -56.5 -198c0 -71.333 36.333 -107 109 -107c69.333 0 163.333 44.667 282 134c52.667 39.333 138.334 113.666 257.001 222.999
c-23.333 -1.33301 -45 -3.66602 -65 -6.99902c-42.667 -8 -62.667 -6.66699 -60 4c2.66699 24.667 15.334 37 38.001 37c44 -5.33301 81 -8 111 -8c57.333 52.667 143 139 257 259c76.667 80.667 123.334 121 140.001 121c7.33301 0 11 -6.33301 11 -19
s-2.33301 -27.334 -7 -44.001zM1026 530.004l-255.999 -240h59c14 -0.666992 31.333 -1 52 -1c19.333 38 67.666 118.333 144.999 241zM1108 371.004c28 -22.667 60.833 -34 98.5 -34s56.5 10.333 56.5 31c0 9.33301 -16.667 14 -50 14s-68.333 -3.66699 -105 -11z
M1022 434.004l-43 -84.999c18.667 8 43 17 73 27c-16 17.333 -26 36.666 -30 57.999z" />
    <glyph glyph-name="Ccedilla" unicode="&#xc7;" horiz-adv-x="726" 
d="M228 -212c0 -30.667 -16.165 -54.6689 -48.498 -72.002s-65.833 -26 -100.5 -26c-6 0 -9 3.33301 -9 10c0 4 3 6.66699 9 8c32 5.33301 56 9 72 11c23.333 7.33301 35 26.666 35 57.999c0 9.33301 -8.66699 26.333 -26 51s-26 43.334 -26 56.001
c0 28.667 8.33301 51.334 25 68.001c-85.333 33.333 -128 101 -128 203s50 205.667 150 311c55.333 58 121 103.167 197 135.5s148 48.5 216 48.5c36 0 67.333 -4.33301 94 -13c72.667 -22.667 109 -68.334 109 -137.001c0 -42 -12.333 -78.333 -37 -109
c-61.333 -75.333 -134.333 -113 -219 -113c-40 0 -73.667 9.16699 -101 27.5s-41 41.5 -41 69.5c0 35.333 23 70.666 69 105.999c8 6 14 9 18 9s6 -1.33301 6 -4c0 -6.66699 -5.33301 -12 -16 -16c-37.333 -30 -56 -60.333 -56 -91c0 -22 10 -40.5 30 -55.5
s45 -22.5 75 -22.5c65.333 0 127 31.333 185 94c30 32.667 45 70.334 45 113.001s-16 74.334 -48 95.001c-26.667 18.667 -62.667 28 -108 28c-65.333 0 -131 -16.333 -197 -49c-81.333 -39.333 -154.833 -100.5 -220.5 -183.5s-98.5 -162.833 -98.5 -239.5
c0 -60.667 20.667 -107.5 62 -140.5s92.666 -49.5 153.999 -49.5c70 0 138.667 17 206 51c51.333 26.667 95.666 60.667 132.999 102c10.667 12 19 18 25 18c4 0 6 -3.5 6 -10.5s-3.66699 -14.167 -11 -21.5c-35.333 -37.333 -86.333 -73.333 -153 -108
c-82 -43.333 -162.333 -65 -241 -65c-28 0 -54.667 3 -80 9c-9.33301 -12.667 -14 -26.667 -14 -42c0 -7.33301 9.66699 -23.666 29 -48.999s29 -47 29 -65z" />
    <glyph glyph-name="Egrave" unicode="&#xc8;" horiz-adv-x="691" 
d="M504 407c65.333 0 98.001 -12.3311 98.001 -36.998c0 -5.33301 -2 -11.333 -6 -18c-16 -24.667 -45 -37 -87 -37c-27.333 0 -55.333 4.83301 -84 14.5s-50.334 19.834 -65.001 30.501c-62 -18 -117.167 -45.667 -165.5 -83s-84.5 -79.666 -108.5 -126.999
c-12.667 -25.333 -19 -50 -19 -74c0 -37.333 15.5 -67.666 46.5 -90.999s76.5 -35 136.5 -35c16.667 0 34 1 52 3c106 11.333 190.333 45.333 253 102c52.667 46.667 79 95.667 79 147c0 40.667 -19.667 61 -59 61c-47.333 0 -101.666 -25.333 -162.999 -76
c-15.333 -12.667 -28.333 -28.667 -39 -48s-16 -38.333 -16 -57s9.33301 -30.334 28 -35.001c6.66699 -2.66699 10 -6 10 -10c0 -6.66699 -6.66699 -9.33398 -20 -8.00098c-32 0.666992 -48 21.667 -48 63s21 80 63 116c57.333 49.333 118 74 182 74c48 0 78.333 -15 91 -45
c5.33301 -14 8 -28 8 -42c0 -62 -34.333 -120.333 -103 -175c-82 -66.667 -186 -100 -312 -100c-78 0 -139.667 14.5 -185 43.5s-68 66.833 -68 113.5c0 27.333 8.66699 54.666 26 81.999c61.333 97.333 166 169.666 314 216.999c-22 25.333 -33 52.333 -33 81
s7 52.667 21 72c27.333 37.333 68.333 68 123 92c65.333 28.667 130.666 43 195.999 43c38 0 68.5 -6.16699 91.5 -18.5s34.5 -31.333 34.5 -57s-9.5 -47.334 -28.5 -65.001s-38.833 -26.5 -59.5 -26.5s-31 5 -31 15c0 6 4.33301 9 13 9l20 -3
c13.333 0 25.5 7.16699 36.5 21.5s16.5 29.166 16.5 44.499c0 22.667 -13 39.334 -39 50.001c-16.667 6.66699 -32.334 10 -47.001 10s-25 -0.333008 -31 -1c-57.333 -3.33301 -113.333 -23.333 -168 -60c-64 -42 -96 -89.333 -96 -142c0 -19.333 6.66699 -37.333 20 -54
c42.667 13.333 83.334 20 122.001 20zM399.001 371.002c28.667 -22.667 61.667 -34 99 -34s56 10.333 56 31c0 9.33301 -16.667 14 -50 14s-68.333 -3.66699 -105 -11zM709.001 724.002c2.66699 -2 4 -4.49805 4 -7.49805s-2 -4.5 -6 -4.5s-23.667 10.667 -59 32
s-55.833 34.166 -61.5 38.499s-8.5 10.666 -8.5 18.999s3 12.5 9 12.5c9.33301 0 50 -30 122 -90z" />
    <glyph glyph-name="Eacute" unicode="&#xc9;" horiz-adv-x="691" 
d="M504 407c65.333 0 98.001 -12.3311 98.001 -36.998c0 -5.33301 -2 -11.333 -6 -18c-16 -24.667 -45 -37 -87 -37c-27.333 0 -55.333 4.83301 -84 14.5s-50.334 19.834 -65.001 30.501c-62 -18 -117.167 -45.667 -165.5 -83s-84.5 -79.666 -108.5 -126.999
c-12.667 -25.333 -19 -50 -19 -74c0 -37.333 15.5 -67.666 46.5 -90.999s76.5 -35 136.5 -35c16.667 0 34 1 52 3c106 11.333 190.333 45.333 253 102c52.667 46.667 79 95.667 79 147c0 40.667 -19.667 61 -59 61c-47.333 0 -101.666 -25.333 -162.999 -76
c-15.333 -12.667 -28.333 -28.667 -39 -48s-16 -38.333 -16 -57s9.33301 -30.334 28 -35.001c6.66699 -2.66699 10 -6 10 -10c0 -6.66699 -6.66699 -9.33398 -20 -8.00098c-32 0.666992 -48 21.667 -48 63s21 80 63 116c57.333 49.333 118 74 182 74c48 0 78.333 -15 91 -45
c5.33301 -14 8 -28 8 -42c0 -62 -34.333 -120.333 -103 -175c-82 -66.667 -186 -100 -312 -100c-78 0 -139.667 14.5 -185 43.5s-68 66.833 -68 113.5c0 27.333 8.66699 54.666 26 81.999c61.333 97.333 166 169.666 314 216.999c-22 25.333 -33 52.333 -33 81
s7 52.667 21 72c27.333 37.333 68.333 68 123 92c65.333 28.667 130.666 43 195.999 43c38 0 68.5 -6.16699 91.5 -18.5s34.5 -31.333 34.5 -57s-9.5 -47.334 -28.5 -65.001s-38.833 -26.5 -59.5 -26.5s-31 5 -31 15c0 6 4.33301 9 13 9l20 -3
c13.333 0 25.5 7.16699 36.5 21.5s16.5 29.166 16.5 44.499c0 22.667 -13 39.334 -39 50.001c-16.667 6.66699 -32.334 10 -47.001 10s-25 -0.333008 -31 -1c-57.333 -3.33301 -113.333 -23.333 -168 -60c-64 -42 -96 -89.333 -96 -142c0 -19.333 6.66699 -37.333 20 -54
c42.667 13.333 83.334 20 122.001 20zM399.001 371.002c28.667 -22.667 61.667 -34 99 -34s56 10.333 56 31c0 9.33301 -16.667 14 -50 14s-68.333 -3.66699 -105 -11zM653.001 722.002c-4.66699 0 -6.99902 1.66699 -6.99902 5s1.33301 6 4 8l105 81c7.33301 6 13 9 17 9
c6 0 9 -4 9 -12s-2.66699 -14.667 -8 -20c-6 -4.66699 -26.333 -17.667 -61 -39s-54.334 -32 -59.001 -32z" />
    <glyph glyph-name="Ecircumflex" unicode="&#xca;" horiz-adv-x="691" 
d="M504 407c65.333 0 98.001 -12.3311 98.001 -36.998c0 -5.33301 -2 -11.333 -6 -18c-16 -24.667 -45 -37 -87 -37c-27.333 0 -55.333 4.83301 -84 14.5s-50.334 19.834 -65.001 30.501c-62 -18 -117.167 -45.667 -165.5 -83s-84.5 -79.666 -108.5 -126.999
c-12.667 -25.333 -19 -50 -19 -74c0 -37.333 15.5 -67.666 46.5 -90.999s76.5 -35 136.5 -35c16.667 0 34 1 52 3c106 11.333 190.333 45.333 253 102c52.667 46.667 79 95.667 79 147c0 40.667 -19.667 61 -59 61c-47.333 0 -101.666 -25.333 -162.999 -76
c-15.333 -12.667 -28.333 -28.667 -39 -48s-16 -38.333 -16 -57s9.33301 -30.334 28 -35.001c6.66699 -2.66699 10 -6 10 -10c0 -6.66699 -6.66699 -9.33398 -20 -8.00098c-32 0.666992 -48 21.667 -48 63s21 80 63 116c57.333 49.333 118 74 182 74c48 0 78.333 -15 91 -45
c5.33301 -14 8 -28 8 -42c0 -62 -34.333 -120.333 -103 -175c-82 -66.667 -186 -100 -312 -100c-78 0 -139.667 14.5 -185 43.5s-68 66.833 -68 113.5c0 27.333 8.66699 54.666 26 81.999c61.333 97.333 166 169.666 314 216.999c-22 25.333 -33 52.333 -33 81
s7 52.667 21 72c27.333 37.333 68.333 68 123 92c65.333 28.667 130.666 43 195.999 43c38 0 68.5 -6.16699 91.5 -18.5s34.5 -31.333 34.5 -57s-9.5 -47.334 -28.5 -65.001s-38.833 -26.5 -59.5 -26.5s-31 5 -31 15c0 6 4.33301 9 13 9l20 -3
c13.333 0 25.5 7.16699 36.5 21.5s16.5 29.166 16.5 44.499c0 22.667 -13 39.334 -39 50.001c-16.667 6.66699 -32.334 10 -47.001 10s-25 -0.333008 -31 -1c-57.333 -3.33301 -113.333 -23.333 -168 -60c-64 -42 -96 -89.333 -96 -142c0 -19.333 6.66699 -37.333 20 -54
c42.667 13.333 83.334 20 122.001 20zM399.001 371.002c28.667 -22.667 61.667 -34 99 -34s56 10.333 56 31c0 9.33301 -16.667 14 -50 14s-68.333 -3.66699 -105 -11zM599.001 715.002c-14.667 -4 -22.001 -1.66602 -22.001 7.00098c0 2 3.33301 6 10 12
c50.667 30.667 83.667 52.667 99 66c20 16.667 32 25 36 25c10 0 29 -15.5 57 -46.5s42.5 -48.333 43.5 -52s1.5 -6.16699 1.5 -7.5c0 -6.66699 -2.66699 -10 -8 -10s-19.666 10.667 -42.999 32s-42.333 36.333 -57 45c-4 -2.66699 -15.167 -9.66699 -33.5 -21l-51.5 -33
c-16 -10.667 -26.667 -16.334 -32 -17.001z" />
    <glyph glyph-name="Edieresis" unicode="&#xcb;" horiz-adv-x="691" 
d="M504 407c65.333 0 98.001 -12.3311 98.001 -36.998c0 -5.33301 -2 -11.333 -6 -18c-16 -24.667 -45 -37 -87 -37c-27.333 0 -55.333 4.83301 -84 14.5s-50.334 19.834 -65.001 30.501c-62 -18 -117.167 -45.667 -165.5 -83s-84.5 -79.666 -108.5 -126.999
c-12.667 -25.333 -19 -50 -19 -74c0 -37.333 15.5 -67.666 46.5 -90.999s76.5 -35 136.5 -35c16.667 0 34 1 52 3c106 11.333 190.333 45.333 253 102c52.667 46.667 79 95.667 79 147c0 40.667 -19.667 61 -59 61c-47.333 0 -101.666 -25.333 -162.999 -76
c-15.333 -12.667 -28.333 -28.667 -39 -48s-16 -38.333 -16 -57s9.33301 -30.334 28 -35.001c6.66699 -2.66699 10 -6 10 -10c0 -6.66699 -6.66699 -9.33398 -20 -8.00098c-32 0.666992 -48 21.667 -48 63s21 80 63 116c57.333 49.333 118 74 182 74c48 0 78.333 -15 91 -45
c5.33301 -14 8 -28 8 -42c0 -62 -34.333 -120.333 -103 -175c-82 -66.667 -186 -100 -312 -100c-78 0 -139.667 14.5 -185 43.5s-68 66.833 -68 113.5c0 27.333 8.66699 54.666 26 81.999c61.333 97.333 166 169.666 314 216.999c-22 25.333 -33 52.333 -33 81
s7 52.667 21 72c27.333 37.333 68.333 68 123 92c65.333 28.667 130.666 43 195.999 43c38 0 68.5 -6.16699 91.5 -18.5s34.5 -31.333 34.5 -57s-9.5 -47.334 -28.5 -65.001s-38.833 -26.5 -59.5 -26.5s-31 5 -31 15c0 6 4.33301 9 13 9l20 -3
c13.333 0 25.5 7.16699 36.5 21.5s16.5 29.166 16.5 44.499c0 22.667 -13 39.334 -39 50.001c-16.667 6.66699 -32.334 10 -47.001 10s-25 -0.333008 -31 -1c-57.333 -3.33301 -113.333 -23.333 -168 -60c-64 -42 -96 -89.333 -96 -142c0 -19.333 6.66699 -37.333 20 -54
c42.667 13.333 83.334 20 122.001 20zM399.001 371.002c28.667 -22.667 61.667 -34 99 -34s56 10.333 56 31c0 9.33301 -16.667 14 -50 14s-68.333 -3.66699 -105 -11zM819.001 793.002c-0.666992 0 -5.33203 -6 -13.999 -18l-16 -40c-8 -18 -17 -27 -27 -27
c-4.66699 0 -9.33398 3.5 -14.001 10.5s-7 14.333 -7 22s9.66699 18.5 29 32.5c20 14 35.333 21 46 21zM695.003 794.002l3.00195 -1c-0.666992 0 -5.33398 -6 -14.001 -18l-16 -40c-8 -18 -17 -27 -27 -27c-4.66699 0 -9.33398 3.5 -14.001 10.5s-7 14.333 -7 22
s9.66699 18.5 29 32.5c20 14 35.333 21 46 21zM820.005 793.002v-1l-1 1h1zM699.005 792.002c0 0.666992 -0.333008 1 -1 1h1v-1z" />
    <glyph glyph-name="Igrave" unicode="&#xcc;" horiz-adv-x="576" 
d="M714 396l-7.00195 26.999c0 5.33301 2.66699 8 8 8c2 0 4.66699 -1 8 -3c15.333 -11.333 23 -26.333 23 -45s-12 -36.834 -36 -54.501s-54.333 -26.5 -91 -26.5c-11.333 0 -22.666 1 -33.999 3c-46 -84.667 -102 -162.667 -168 -234c-88 -93.333 -168 -140 -240 -140
c-104 0 -156 61.333 -156 184c0 101.333 27 183 81 245c45.333 53.333 97.333 80 156 80c15.333 0 31 -2.66699 47 -8c39.333 -15.333 59 -47.833 59 -97.5s-20.333 -101.5 -61 -155.5s-82.334 -81 -125.001 -81c-48 0 -72 26 -72 78c0 14.667 3.16699 30 9.5 46
s13.5 24 21.5 24c6 0 9 -3 9 -9c0 -3.33301 -3 -11.666 -9 -24.999s-9 -25.166 -9 -35.499s5.5 -20 16.5 -29s22.5 -13.5 34.5 -13.5c39.333 0 75.833 24.167 109.5 72.5s50.5 95.5 50.5 141.5c0 35.333 -12.667 58.666 -38 69.999c-8.66699 3.33301 -17.667 5 -27 5
c-47.333 0 -94.666 -32.667 -141.999 -98c-46 -66 -69 -138.333 -69 -217c0 -43.333 9.33301 -78.666 28 -105.999c19.333 -28 46 -42 80 -42c88 0 202.667 119.667 344 359c-73.333 22 -110 65.333 -110 130c0 86 43.667 154.667 131 206c55.333 32 109 48 161 48
c40.667 0 77.334 -6.66699 110.001 -20c46 -18 69 -45.333 69 -82c0 -8 -1.83301 -15.667 -5.5 -23s-7.5 -11 -11.5 -11c-8.66699 8.66699 -19 13 -31 13c-56.667 0 -134.334 -84.333 -233.001 -253c5.33301 -0.666992 11 -1 17 -1c22.667 0 45.334 6.66699 68.001 20
s34 30 34 50zM603.498 645.499c-44.333 -19.667 -79.667 -48.5 -106 -86.5s-39.5 -81 -39.5 -129s24.667 -76.667 74 -86c36.667 60 84 119.833 142 179.5s106.333 89.5 145 89.5c10 0 18.667 -2.33301 26 -7c-0.666992 18.667 -13.667 35 -39 49
c-22.667 13.333 -51 20 -85 20s-73.167 -9.83301 -117.5 -29.5zM864.997 734.999c2.66699 -2 4 -4.49805 4 -7.49805s-2 -4.5 -6 -4.5s-23.667 10.667 -59 32s-56 34.166 -62 38.499s-9 10.666 -9 18.999s3.33301 12.5 10 12.5c8 0 48.667 -30 122 -90z" />
    <glyph glyph-name="Iacute" unicode="&#xcd;" horiz-adv-x="576" 
d="M714 396l-7.00195 26.999c0 5.33301 2.66699 8 8 8c2 0 4.66699 -1 8 -3c15.333 -11.333 23 -26.333 23 -45s-12 -36.834 -36 -54.501s-54.333 -26.5 -91 -26.5c-11.333 0 -22.666 1 -33.999 3c-46 -84.667 -102 -162.667 -168 -234c-88 -93.333 -168 -140 -240 -140
c-104 0 -156 61.333 -156 184c0 101.333 27 183 81 245c45.333 53.333 97.333 80 156 80c15.333 0 31 -2.66699 47 -8c39.333 -15.333 59 -47.833 59 -97.5s-20.333 -101.5 -61 -155.5s-82.334 -81 -125.001 -81c-48 0 -72 26 -72 78c0 14.667 3.16699 30 9.5 46
s13.5 24 21.5 24c6 0 9 -3 9 -9c0 -3.33301 -3 -11.666 -9 -24.999s-9 -25.166 -9 -35.499s5.5 -20 16.5 -29s22.5 -13.5 34.5 -13.5c39.333 0 75.833 24.167 109.5 72.5s50.5 95.5 50.5 141.5c0 35.333 -12.667 58.666 -38 69.999c-8.66699 3.33301 -17.667 5 -27 5
c-47.333 0 -94.666 -32.667 -141.999 -98c-46 -66 -69 -138.333 -69 -217c0 -43.333 9.33301 -78.666 28 -105.999c19.333 -28 46 -42 80 -42c88 0 202.667 119.667 344 359c-73.333 22 -110 65.333 -110 130c0 86 43.667 154.667 131 206c55.333 32 109 48 161 48
c40.667 0 77.334 -6.66699 110.001 -20c46 -18 69 -45.333 69 -82c0 -8 -1.83301 -15.667 -5.5 -23s-7.5 -11 -11.5 -11c-8.66699 8.66699 -19 13 -31 13c-56.667 0 -134.334 -84.333 -233.001 -253c5.33301 -0.666992 11 -1 17 -1c22.667 0 45.334 6.66699 68.001 20
s34 30 34 50zM603.498 645.499c-44.333 -19.667 -79.667 -48.5 -106 -86.5s-39.5 -81 -39.5 -129s24.667 -76.667 74 -86c36.667 60 84 119.833 142 179.5s106.333 89.5 145 89.5c10 0 18.667 -2.33301 26 -7c-0.666992 18.667 -13.667 35 -39 49
c-22.667 13.333 -51 20 -85 20s-73.167 -9.83301 -117.5 -29.5zM769.997 721.999c-4.66699 0 -6.99902 1.66699 -6.99902 5s1.33301 6 4 8l105 81c6.66699 6 12.667 9 18 9s8 -4 8 -12s-2.66699 -14.667 -8 -20c-6 -4.66699 -26.333 -17.667 -61 -39
s-54.334 -32 -59.001 -32z" />
    <glyph glyph-name="Icircumflex" unicode="&#xce;" horiz-adv-x="576" 
d="M714 396l-7.00195 26.999c0 5.33301 2.66699 8 8 8c2 0 4.66699 -1 8 -3c15.333 -11.333 23 -26.333 23 -45s-12 -36.834 -36 -54.501s-54.333 -26.5 -91 -26.5c-11.333 0 -22.666 1 -33.999 3c-46 -84.667 -102 -162.667 -168 -234c-88 -93.333 -168 -140 -240 -140
c-104 0 -156 61.333 -156 184c0 101.333 27 183 81 245c45.333 53.333 97.333 80 156 80c15.333 0 31 -2.66699 47 -8c39.333 -15.333 59 -47.833 59 -97.5s-20.333 -101.5 -61 -155.5s-82.334 -81 -125.001 -81c-48 0 -72 26 -72 78c0 14.667 3.16699 30 9.5 46
s13.5 24 21.5 24c6 0 9 -3 9 -9c0 -3.33301 -3 -11.666 -9 -24.999s-9 -25.166 -9 -35.499s5.5 -20 16.5 -29s22.5 -13.5 34.5 -13.5c39.333 0 75.833 24.167 109.5 72.5s50.5 95.5 50.5 141.5c0 35.333 -12.667 58.666 -38 69.999c-8.66699 3.33301 -17.667 5 -27 5
c-47.333 0 -94.666 -32.667 -141.999 -98c-46 -66 -69 -138.333 -69 -217c0 -43.333 9.33301 -78.666 28 -105.999c19.333 -28 46 -42 80 -42c88 0 202.667 119.667 344 359c-73.333 22 -110 65.333 -110 130c0 86 43.667 154.667 131 206c55.333 32 109 48 161 48
c40.667 0 77.334 -6.66699 110.001 -20c46 -18 69 -45.333 69 -82c0 -8 -1.83301 -15.667 -5.5 -23s-7.5 -11 -11.5 -11c-8.66699 8.66699 -19 13 -31 13c-56.667 0 -134.334 -84.333 -233.001 -253c5.33301 -0.666992 11 -1 17 -1c22.667 0 45.334 6.66699 68.001 20
s34 30 34 50zM603.498 645.499c-44.333 -19.667 -79.667 -48.5 -106 -86.5s-39.5 -81 -39.5 -129s24.667 -76.667 74 -86c36.667 60 84 119.833 142 179.5s106.333 89.5 145 89.5c10 0 18.667 -2.33301 26 -7c-0.666992 18.667 -13.667 35 -39 49
c-22.667 13.333 -51 20 -85 20s-73.167 -9.83301 -117.5 -29.5zM679.997 714.999c-14.667 -4 -22.001 -1.66602 -22.001 7.00098c0 2 3.33301 6 10 12c50.667 30.667 83.667 52.667 99 66c20 16.667 32 25 36 25c10 0 29 -15.5 57 -46.5s42.5 -48.333 43.5 -52
s1.5 -6.16699 1.5 -7.5c0 -6.66699 -2.66699 -10 -8 -10s-19.666 10.667 -42.999 32s-42.333 36.333 -57 45c-4 -2.66699 -15.167 -9.66699 -33.5 -21l-51.5 -33c-16 -10.667 -26.667 -16.334 -32 -17.001z" />
    <glyph glyph-name="Idieresis" unicode="&#xcf;" horiz-adv-x="576" 
d="M714 396l-7.00195 26.999c0 5.33301 2.66699 8 8 8c2 0 4.66699 -1 8 -3c15.333 -11.333 23 -26.333 23 -45s-12 -36.834 -36 -54.501s-54.333 -26.5 -91 -26.5c-11.333 0 -22.666 1 -33.999 3c-46 -84.667 -102 -162.667 -168 -234c-88 -93.333 -168 -140 -240 -140
c-104 0 -156 61.333 -156 184c0 101.333 27 183 81 245c45.333 53.333 97.333 80 156 80c15.333 0 31 -2.66699 47 -8c39.333 -15.333 59 -47.833 59 -97.5s-20.333 -101.5 -61 -155.5s-82.334 -81 -125.001 -81c-48 0 -72 26 -72 78c0 14.667 3.16699 30 9.5 46
s13.5 24 21.5 24c6 0 9 -3 9 -9c0 -3.33301 -3 -11.666 -9 -24.999s-9 -25.166 -9 -35.499s5.5 -20 16.5 -29s22.5 -13.5 34.5 -13.5c39.333 0 75.833 24.167 109.5 72.5s50.5 95.5 50.5 141.5c0 35.333 -12.667 58.666 -38 69.999c-8.66699 3.33301 -17.667 5 -27 5
c-47.333 0 -94.666 -32.667 -141.999 -98c-46 -66 -69 -138.333 -69 -217c0 -43.333 9.33301 -78.666 28 -105.999c19.333 -28 46 -42 80 -42c88 0 202.667 119.667 344 359c-73.333 22 -110 65.333 -110 130c0 86 43.667 154.667 131 206c55.333 32 109 48 161 48
c40.667 0 77.334 -6.66699 110.001 -20c46 -18 69 -45.333 69 -82c0 -8 -1.83301 -15.667 -5.5 -23s-7.5 -11 -11.5 -11c-8.66699 8.66699 -19 13 -31 13c-56.667 0 -134.334 -84.333 -233.001 -253c5.33301 -0.666992 11 -1 17 -1c22.667 0 45.334 6.66699 68.001 20
s34 30 34 50zM603.498 645.499c-44.333 -19.667 -79.667 -48.5 -106 -86.5s-39.5 -81 -39.5 -129s24.667 -76.667 74 -86c36.667 60 84 119.833 142 179.5s106.333 89.5 145 89.5c10 0 18.667 -2.33301 26 -7c-0.666992 18.667 -13.667 35 -39 49
c-22.667 13.333 -51 20 -85 20s-73.167 -9.83301 -117.5 -29.5zM820.997 738.999c-4.66699 0 -9.33203 3.5 -13.999 10.5s-7 14.333 -7 22s9.66699 18.5 29 32.5c20 14 35.333 21 46 21c0.666992 0 1.66699 -0.333008 3 -1c-0.666992 0 -5.33398 -6 -14.001 -18l-16 -40
c-8 -18 -17 -27 -27 -27zM756.999 823.999c-0.666992 0 -5.33203 -6 -13.999 -18l-16 -40c-8 -18 -17 -27 -27 -27c-4.66699 0 -9.33398 3.5 -14.001 10.5s-7 14.333 -7 22s9.66699 18.5 29 32.5c20 14 35.333 21 46 21zM879.001 823.999v-1l-1 1h1zM758.001 823.999v-1
l-1 1h1z" />
    <glyph glyph-name="Eth" unicode="&#xd0;" horiz-adv-x="921" 
d="M526 277c0 -12 -42.999 -24 -128.999 -36c-56.667 -75.333 -118.334 -140.666 -185.001 -195.999c37.333 -55.333 96 -83 176 -83c8.66699 0 21.667 0.666992 39 2c185.333 17.333 316.666 97.666 393.999 240.999c31.333 57.333 47 114 47 170s-20.333 106.333 -61 151
c-32.667 36.667 -68.167 59.334 -106.5 68.001s-77.5 13 -117.5 13c-102.667 0 -197.334 -23.667 -284.001 -71c-91.333 -50 -137 -106 -137 -168c0 -16.667 4.5 -30.334 13.5 -41.001s15.167 -16.667 18.5 -18h-6c-17.333 3.33301 -32.666 12 -45.999 26
c-14.667 17.333 -22 35.666 -22 54.999c0 66.667 41.833 124 125.5 172s181.834 72 294.501 72c52 0 105.333 -6 160 -18s104.334 -40.667 149.001 -86c51.333 -53.333 77 -113.666 77 -180.999c0 -50 -14.667 -101.667 -44 -155
c-50.667 -92 -126.334 -159.333 -227.001 -202c-80.667 -34 -167.667 -51 -261 -51s-162.333 28 -207 84c-58.667 -45.333 -101.667 -68 -129 -68c-14.667 0 -25.5 7.16699 -32.5 21.5s-10.5 29.833 -10.5 46.5c0 32 13.5 80 40.5 144s52.833 96 77.5 96
c12.667 0 23.5 -25 32.5 -75s18.167 -86.333 27.5 -109c30 30.667 71.667 80 125 148c-8 0 -17 1 -27 3c-21.333 4 -32 11 -32 21c0 6.66699 2.83301 12.334 8.5 17.001s10.5 7 14.5 7s8 0.333008 12 1h63l33 43c108 142 179.667 219.667 215 233c12 4.66699 24.333 7 37 7
s23.167 -2.66699 31.5 -8s12.5 -12 12.5 -20c0 -11.333 -9.66699 -18 -29 -20c-23.333 -12.667 -59.333 -43.334 -108 -92.001c-46 -44.667 -87.667 -92.667 -125 -144c44 0 77.667 1 101 3c0.666992 -0.666992 1 -1.66699 1 -3zM51.001 29
c0 -20.667 3.99902 -38.667 11.999 -54c28.667 12.667 63.334 39 104.001 79c-19.333 32 -31.5 57.167 -36.5 75.5s-8.5 42.5 -10.5 72.5c-46 -66 -69 -123.667 -69 -173zM194 309c0.666992 0 1.33301 0.333008 2 1c0 -1.33301 -0.166992 -2 -0.5 -2
s-0.833008 0.333008 -1.5 1z" />
    <glyph glyph-name="Ntilde" unicode="&#xd1;" horiz-adv-x="925" 
d="M402 12c-16 -24.667 -24.0059 -40.8311 -24.0059 -48.498s3 -12.834 9 -15.501c0 -1.33301 -5.5 -5.5 -16.5 -12.5s-26.167 -10.5 -45.5 -10.5s-29 5 -29 15c0 17.333 32.833 74.833 98.5 172.5s108.834 165.167 129.501 202.5c45.333 81.333 68 145.666 68 192.999
c0 18.667 -3.66699 36 -11 52c-11.333 24 -38.666 36 -81.999 36c-79.333 0 -163.666 -36.333 -252.999 -109c-68 -56 -120.333 -114 -157 -174c-33.333 -56.667 -50 -107.334 -50 -152.001c0 -64 29.667 -96.667 89 -98h8c78.667 0 138.334 27.667 179.001 83
c16 22 24 40.667 24 56s-3.66699 25 -11 29c-0.666992 0.666992 -1 2 -1 4s2 3 6 3c17.333 0 26 -11.333 26 -34c0 -14 -6.66699 -33 -20 -57s-37.5 -46.667 -72.5 -68s-74.833 -32 -119.5 -32s-80 13 -106 39s-39 61 -39 105c0 104 71.333 213.333 214 328
c36 28.667 82.833 52.667 140.5 72s110 29 157 29s80.167 -8.83301 99.5 -26.5s29 -42.167 29 -73.5c0 -76 -46 -183.667 -138 -323c20.667 26 54.334 59 101.001 99c166 139.333 308.667 231 428 275c6 2.66699 12.667 4 20 4c25.333 0 41.333 -14.333 48 -43
c3.33301 -11.333 -12.667 -35 -48 -71c-83.333 -85.333 -154 -178.666 -212 -279.999s-87 -174 -87 -218c0 -10.667 2 -18.167 6 -22.5s10.333 -5.66602 19 -3.99902s26.834 8.5 54.501 20.5s45.834 19 54.501 21c3.33301 -1.33301 5 -3 5 -5c0 -10 -17.5 -24 -52.5 -42
s-61.167 -27 -78.5 -27s-28.333 3 -33 9c-12 16.667 -18 37.667 -18 63c0 57.333 30.667 139.666 92 246.999c39.333 67.333 100 158 182 272c-88.667 -8 -203.334 -78 -344.001 -210c-112 -106 -191.667 -197 -239 -273zM1020.99 732.003
c0 -10 -13.334 -24.002 -40.001 -42.002c-8.66699 -5.33301 -18.5 -8 -29.5 -8s-27.333 4.5 -49 13.5s-38 13.5 -49 13.5s-21.833 -4.33301 -32.5 -13s-17.667 -13 -21 -13c-0.666992 0.666992 -1 1.33398 -1 2.00098c0 10.667 14.333 24.334 43 41.001
c10.667 6.66699 21.834 10 33.501 10s28 -3.5 49 -10.5s38.333 -10.5 52 -10.5s26.5 7 38.5 21c4 0 6 -1.33301 6 -4z" />
    <glyph glyph-name="Ograve" unicode="&#xd2;" horiz-adv-x="784" 
d="M812 356c0 -83.333 -42.6699 -163 -128.003 -239c-131.333 -117.333 -278.333 -176 -441 -176c-18 0 -32 0.333008 -42 1c-53.333 2.66699 -96.166 20.167 -128.499 52.5s-48.5 74.166 -48.5 125.499s13.667 107.333 41 168
c34.667 76.667 102.334 151.334 203.001 224.001c116 82.667 236 124 360 124c66.667 0 117.334 -13 152.001 -39s52 -58.333 52 -97c0 -24 -9.33301 -53.667 -28 -89c5.33301 -18 8 -36.333 8 -55zM790.997 441c6.66699 16 10.002 33.835 10.002 53.502
s-7.33301 39.834 -22 60.501c-28.667 40 -79.334 60 -152.001 60c-100.667 0 -195.667 -31.167 -285 -93.5s-159 -140.833 -209 -235.5c-36.667 -68.667 -55 -130.334 -55 -185.001c0 -88 44.333 -134.333 133 -139c9.33301 -0.666992 18.666 -1 27.999 -1
c131.333 0 256.333 53 375 159c85.333 76 131.333 148.333 138 217c-34.667 -38 -94.667 -83.333 -180 -136l-8 -2c-0.666992 0 -1 0.333008 -1 1c0 2.66699 9 11.667 27 27l56 46c48 42 83 76.333 105 103c-4.66699 37.333 -21.5 68.5 -50.5 93.5
s-62.167 43.167 -99.5 54.5c-18.667 4.66699 -47.5 7.66699 -86.5 9s-58.5 2.66602 -58.5 3.99902s0.666992 2.66602 2 3.99902c30.667 10 60.167 15 88.5 15s60.833 -4.33301 97.5 -13c70 -16.667 119 -50.667 147 -102zM789.999 715.002c2.66699 -2 4 -4.49805 4 -7.49805
s-2 -4.5 -6 -4.5s-23.667 10.667 -59 32s-56 34.166 -62 38.499s-9 10.666 -9 18.999s3.33301 12.5 10 12.5c8 0 48.667 -30 122 -90z" />
    <glyph glyph-name="Oacute" unicode="&#xd3;" horiz-adv-x="784" 
d="M812 356c0 -83.333 -42.6699 -163 -128.003 -239c-131.333 -117.333 -278.333 -176 -441 -176c-18 0 -32 0.333008 -42 1c-53.333 2.66699 -96.166 20.167 -128.499 52.5s-48.5 74.166 -48.5 125.499s13.667 107.333 41 168
c34.667 76.667 102.334 151.334 203.001 224.001c116 82.667 236 124 360 124c66.667 0 117.334 -13 152.001 -39s52 -58.333 52 -97c0 -24 -9.33301 -53.667 -28 -89c5.33301 -18 8 -36.333 8 -55zM790.997 441c6.66699 16 10.002 33.835 10.002 53.502
s-7.33301 39.834 -22 60.501c-28.667 40 -79.334 60 -152.001 60c-100.667 0 -195.667 -31.167 -285 -93.5s-159 -140.833 -209 -235.5c-36.667 -68.667 -55 -130.334 -55 -185.001c0 -88 44.333 -134.333 133 -139c9.33301 -0.666992 18.666 -1 27.999 -1
c131.333 0 256.333 53 375 159c85.333 76 131.333 148.333 138 217c-34.667 -38 -94.667 -83.333 -180 -136l-8 -2c-0.666992 0 -1 0.333008 -1 1c0 2.66699 9 11.667 27 27l56 46c48 42 83 76.333 105 103c-4.66699 37.333 -21.5 68.5 -50.5 93.5
s-62.167 43.167 -99.5 54.5c-18.667 4.66699 -47.5 7.66699 -86.5 9s-58.5 2.66602 -58.5 3.99902s0.666992 2.66602 2 3.99902c30.667 10 60.167 15 88.5 15s60.833 -4.33301 97.5 -13c70 -16.667 119 -50.667 147 -102zM672.999 702.002
c-4.66699 0 -6.99902 1.66699 -6.99902 5s1.33301 6 4 8l105 81c7.33301 6 13 9 17 9c6 0 9 -4 9 -12s-2.66699 -14.667 -8 -20c-6 -4.66699 -26.333 -17.667 -61 -39s-54.334 -32 -59.001 -32z" />
    <glyph glyph-name="Ocircumflex" unicode="&#xd4;" horiz-adv-x="784" 
d="M812 356c0 -83.333 -42.6699 -163 -128.003 -239c-131.333 -117.333 -278.333 -176 -441 -176c-18 0 -32 0.333008 -42 1c-53.333 2.66699 -96.166 20.167 -128.499 52.5s-48.5 74.166 -48.5 125.499s13.667 107.333 41 168
c34.667 76.667 102.334 151.334 203.001 224.001c116 82.667 236 124 360 124c66.667 0 117.334 -13 152.001 -39s52 -58.333 52 -97c0 -24 -9.33301 -53.667 -28 -89c5.33301 -18 8 -36.333 8 -55zM790.997 441c6.66699 16 10.002 33.835 10.002 53.502
s-7.33301 39.834 -22 60.501c-28.667 40 -79.334 60 -152.001 60c-100.667 0 -195.667 -31.167 -285 -93.5s-159 -140.833 -209 -235.5c-36.667 -68.667 -55 -130.334 -55 -185.001c0 -88 44.333 -134.333 133 -139c9.33301 -0.666992 18.666 -1 27.999 -1
c131.333 0 256.333 53 375 159c85.333 76 131.333 148.333 138 217c-34.667 -38 -94.667 -83.333 -180 -136l-8 -2c-0.666992 0 -1 0.333008 -1 1c0 2.66699 9 11.667 27 27l56 46c48 42 83 76.333 105 103c-4.66699 37.333 -21.5 68.5 -50.5 93.5
s-62.167 43.167 -99.5 54.5c-18.667 4.66699 -47.5 7.66699 -86.5 9s-58.5 2.66602 -58.5 3.99902s0.666992 2.66602 2 3.99902c30.667 10 60.167 15 88.5 15s60.833 -4.33301 97.5 -13c70 -16.667 119 -50.667 147 -102zM574.999 686.002
c-3.33301 0.666992 -5 1.99805 -5 3.99805c0 2.66699 3.66699 7 11 13c72.667 44.667 124.667 80.334 156 107.001l7 3c8 -0.666992 28 -18 60 -52c28 -32 42 -51.833 42 -59.5s-3 -11.5 -9 -11.5c-7.33301 0 -21.833 9.33301 -43.5 28s-40.5 36.667 -56.5 54
c-4 -2.66699 -15.167 -9.66699 -33.5 -21l-62.5 -40c-23.333 -15.333 -45.333 -23.666 -66 -24.999z" />
    <glyph glyph-name="Otilde" unicode="&#xd5;" horiz-adv-x="784" 
d="M812 356c0 -83.333 -42.6699 -163 -128.003 -239c-131.333 -117.333 -278.333 -176 -441 -176c-18 0 -32 0.333008 -42 1c-53.333 2.66699 -96.166 20.167 -128.499 52.5s-48.5 74.166 -48.5 125.499s13.667 107.333 41 168
c34.667 76.667 102.334 151.334 203.001 224.001c116 82.667 236 124 360 124c66.667 0 117.334 -13 152.001 -39s52 -58.333 52 -97c0 -24 -9.33301 -53.667 -28 -89c5.33301 -18 8 -36.333 8 -55zM790.997 441c6.66699 16 10.002 33.835 10.002 53.502
s-7.33301 39.834 -22 60.501c-28.667 40 -79.334 60 -152.001 60c-100.667 0 -195.667 -31.167 -285 -93.5s-159 -140.833 -209 -235.5c-36.667 -68.667 -55 -130.334 -55 -185.001c0 -88 44.333 -134.333 133 -139c9.33301 -0.666992 18.666 -1 27.999 -1
c131.333 0 256.333 53 375 159c85.333 76 131.333 148.333 138 217c-34.667 -38 -94.667 -83.333 -180 -136l-8 -2c-0.666992 0 -1 0.333008 -1 1c0 2.66699 9 11.667 27 27l56 46c48 42 83 76.333 105 103c-4.66699 37.333 -21.5 68.5 -50.5 93.5
s-62.167 43.167 -99.5 54.5c-18.667 4.66699 -47.5 7.66699 -86.5 9s-58.5 2.66602 -58.5 3.99902s0.666992 2.66602 2 3.99902c30.667 10 60.167 15 88.5 15s60.833 -4.33301 97.5 -13c70 -16.667 119 -50.667 147 -102zM841.999 732.002
c0 -10 -13.334 -24.002 -40.001 -42.002c-8.66699 -5.33301 -18.5 -8 -29.5 -8s-27.333 4.5 -49 13.5s-38 13.5 -49 13.5s-21.833 -4.33301 -32.5 -13s-17.667 -13 -21 -13c-0.666992 0.666992 -1 1.33398 -1 2.00098c0 10.667 14.333 24.334 43 41.001
c10.667 6.66699 21.834 10 33.501 10s28 -3.5 49 -10.5s38.333 -10.5 52 -10.5s26.5 7 38.5 21c4 0 6 -1.33301 6 -4z" />
    <glyph glyph-name="Odieresis" unicode="&#xd6;" horiz-adv-x="784" 
d="M812 356c0 -83.333 -42.6699 -163 -128.003 -239c-131.333 -117.333 -278.333 -176 -441 -176c-18 0 -32 0.333008 -42 1c-53.333 2.66699 -96.166 20.167 -128.499 52.5s-48.5 74.166 -48.5 125.499s13.667 107.333 41 168
c34.667 76.667 102.334 151.334 203.001 224.001c116 82.667 236 124 360 124c66.667 0 117.334 -13 152.001 -39s52 -58.333 52 -97c0 -24 -9.33301 -53.667 -28 -89c5.33301 -18 8 -36.333 8 -55zM790.997 441c6.66699 16 10.002 33.835 10.002 53.502
s-7.33301 39.834 -22 60.501c-28.667 40 -79.334 60 -152.001 60c-100.667 0 -195.667 -31.167 -285 -93.5s-159 -140.833 -209 -235.5c-36.667 -68.667 -55 -130.334 -55 -185.001c0 -88 44.333 -134.333 133 -139c9.33301 -0.666992 18.666 -1 27.999 -1
c131.333 0 256.333 53 375 159c85.333 76 131.333 148.333 138 217c-34.667 -38 -94.667 -83.333 -180 -136l-8 -2c-0.666992 0 -1 0.333008 -1 1c0 2.66699 9 11.667 27 27l56 46c48 42 83 76.333 105 103c-4.66699 37.333 -21.5 68.5 -50.5 93.5
s-62.167 43.167 -99.5 54.5c-18.667 4.66699 -47.5 7.66699 -86.5 9s-58.5 2.66602 -58.5 3.99902s0.666992 2.66602 2 3.99902c30.667 10 60.167 15 88.5 15s60.833 -4.33301 97.5 -13c70 -16.667 119 -50.667 147 -102zM814.999 788.002
c-0.666992 0 -5.33203 -6 -13.999 -18l-16 -40c-8 -18 -17 -27 -27 -27c-4.66699 0 -9.33398 3.5 -14.001 10.5s-7 14.333 -7 22s9.66699 18.5 29 32.5c20 14 35.333 21 46 21zM637.001 703.002c-4.66699 0 -9.33203 3.5 -13.999 10.5s-7 14.333 -7 22s9.66699 18.5 29 32.5
c20 14 35.333 21 46 21c0.666992 0 1.66699 -0.333008 3 -1c-0.666992 0 -5.33398 -6 -14.001 -18l-16 -40c-8 -18 -17 -27 -27 -27zM816.003 788.002v-1l-1 1h1zM695.003 788.002v-1l-1 1h1z" />
    <glyph glyph-name="multiply" unicode="&#xd7;" horiz-adv-x="284" 
d="M125 299l13 1.00391c6.66699 0 11.167 -3.83301 13.5 -11.5s6.83301 -34.834 13.5 -81.501c8 8 28.5 25.333 61.5 52s50.167 40 51.5 40c8.66699 0 13 -4 13 -12c0 -2 -1.33301 -4.33301 -4 -7l-119 -91c10 -60.667 29.667 -91 59 -91c3.33301 0 12.666 2.33301 27.999 7
c2 0 3 -0.666992 3 -2c0 -4.66699 -8.33301 -10 -25 -16s-31 -9 -43 -9s-22.167 6.66699 -30.5 20s-16.5 37 -24.5 71c-5.33301 -6.66699 -22.666 -23.834 -51.999 -51.501s-47 -41.5 -53 -41.5s-9 1.66699 -9 5c3.33301 6.66699 20.5 24.667 51.5 54
s50.5 46.666 58.5 51.999l-10 56c-4 15.333 -9 26.666 -15 33.999s-10.833 11.5 -14.5 12.5s-5.5 2.16699 -5.5 3.5c0 4 13 6 39 6z" />
    <glyph glyph-name="Oslash" unicode="&#xd8;" horiz-adv-x="784" 
d="M726 698c7.33301 0 13.166 -2.16992 17.499 -6.50293s6.5 -8.83301 6.5 -13.5s-3 -10.667 -9 -18l-29 -33c28 -7.33301 51 -17.666 69 -30.999c34 -25.333 51 -57.333 51 -96c0 -24 -9.33301 -53.667 -28 -89c5.33301 -18 8 -36.333 8 -55
c0 -83.333 -42.667 -163 -128 -239c-131.333 -117.333 -278.333 -176 -441 -176h-22c-1.33301 -4.66699 -2 -12.5 -2 -23.5s2.5 -17.667 7.5 -20s6.16699 -6.16602 3.5 -11.499c-4.66699 -6.66699 -11.667 -10 -21 -10c-11.333 0 -17 8 -17 24s1.33301 30.333 4 43
c-52 3.33301 -93.667 21 -125 53s-47 73.5 -47 124.5s13.667 106.833 41 167.5c34.667 76.667 102.334 151.334 203.001 224.001c116 82.667 236 124 360 124c15.333 0 26.333 -0.333008 33 -1c36 42 57.667 63 65 63zM458 540.997c30.667 10 57.168 15.0039 79.501 15.0039
s41.5 -1.33301 57.5 -4c6.66699 9.33301 15.834 21.166 27.501 35.499l21.5 26.5c-3.33301 0.666992 -9 1 -17 1c-100.667 0 -195.667 -31.167 -285 -93.5s-159 -140.833 -209 -235.5c-36.667 -68.667 -55 -130.334 -55 -185.001c0 -84 41 -130 123 -138
c1.33301 6 5.66602 19 12.999 39c20.667 56.667 107.667 188 261 394l101 132c-12.667 2 -35.834 3.66699 -69.501 5s-50.5 2.66602 -50.5 3.99902s0.666992 2.66602 2 3.99902zM240.001 -37.999c131.333 0 255.999 52.667 373.999 158c85.333 76 131.333 148.333 138 217
c-34.667 -38 -94.667 -83.333 -180 -136l-8 -2c-0.666992 0 -1 0.333008 -1 1c0 2.66699 9 11.667 27 27l56 46c48 42 83 76.333 105 103c-4.66699 37.333 -22.667 69.333 -54 96c-22 19.333 -47.333 34.333 -76 45l-176 -228
c-119.333 -158.667 -191.666 -267.667 -216.999 -327h12zM791 441.001c6.66699 16 10.002 33.832 10.002 53.499s-8.33301 41.167 -25 64.5s-43.334 39.333 -80.001 48c-4.66699 -5.33301 -22.334 -26.666 -53.001 -63.999h1c70 -16.667 119 -50.667 147 -102z" />
    <glyph glyph-name="Ugrave" unicode="&#xd9;" horiz-adv-x="801" 
d="M345 -19c-28.667 0 -43.0029 9.99609 -43.0029 29.9961c0 34.667 44.167 114.167 132.5 238.5s141.833 200.833 160.5 229.5c40.667 62.667 61 105.334 61 128.001c0 11.333 -4.33301 18.333 -13 21c-16 6.66699 -34.667 10 -56 10c-73.333 0 -167 -39 -281 -117
c-74.667 -52 -136.5 -112.833 -185.5 -182.5s-73.5 -127.167 -73.5 -172.5c0 -32.667 13.333 -51.334 40 -56.001c10.667 -2 21.334 -3 32.001 -3c34 0 69 11 105 33c18 10.667 40.667 28.334 68 53.001l18 6c-12.667 -24 -39.167 -48.333 -79.5 -73s-81.833 -37 -124.5 -37
c-10 0 -21.667 1.33301 -35 4s-26.166 12.167 -38.499 28.5s-18.5 37.833 -18.5 64.5c0 104.667 98.667 227.667 296 369c40 27.333 87.333 51.833 142 73.5s104.334 32.5 149.001 32.5c22.667 0 44.5 -4.33301 65.5 -13s31.5 -23.167 31.5 -43.5s-11.833 -49.333 -35.5 -87
s-60.667 -90.667 -111 -159s-93 -132.166 -128 -191.499s-52.5 -100.666 -52.5 -123.999c0 -11.333 4.66699 -17 14 -17c18 0 51.667 18.667 101 56c117.333 89.333 255.333 234.333 414 435c25.333 32 45.666 48 60.999 48c6 0 9 -3 9 -9c0 -2.66699 -1 -6 -3 -10
c0.666992 -2 1 -4 1 -6c0 -14 -8 -33 -24 -57l-118 -167c-48 -69.333 -90.333 -135 -127 -197s-53.667 -98.333 -51 -109l18 6c33.333 18.667 62.333 40.334 87 65.001c8.66699 6.66699 14 10 16 10l2 -2c0 -6 -9 -18.667 -27 -38c-46.667 -40.667 -80 -61 -100 -61
s-30 6.33301 -30 19s17.833 52 53.5 118s92.834 157 171.501 273c-13.333 -16 -34.333 -39.667 -63 -71c-164 -168 -262.333 -265 -295 -291c-48.667 -38 -94 -57 -136 -57zM870.997 644.996c0 -4 -1.99902 -6 -5.99902 -6s-22.333 9.83301 -55 29.5
s-53.334 32.5 -62.001 38.5s-13 13.167 -13 21.5s3.33301 12.5 10 12.5c10 0 50.667 -30 122 -90c2.66699 -2 4 -4 4 -6z" />
    <glyph glyph-name="Uacute" unicode="&#xda;" horiz-adv-x="801" 
d="M345 -19c-28.667 0 -43.0029 9.99609 -43.0029 29.9961c0 34.667 44.167 114.167 132.5 238.5s141.833 200.833 160.5 229.5c40.667 62.667 61 105.334 61 128.001c0 11.333 -4.33301 18.333 -13 21c-16 6.66699 -34.667 10 -56 10c-73.333 0 -167 -39 -281 -117
c-74.667 -52 -136.5 -112.833 -185.5 -182.5s-73.5 -127.167 -73.5 -172.5c0 -32.667 13.333 -51.334 40 -56.001c10.667 -2 21.334 -3 32.001 -3c34 0 69 11 105 33c18 10.667 40.667 28.334 68 53.001l18 6c-12.667 -24 -39.167 -48.333 -79.5 -73s-81.833 -37 -124.5 -37
c-10 0 -21.667 1.33301 -35 4s-26.166 12.167 -38.499 28.5s-18.5 37.833 -18.5 64.5c0 104.667 98.667 227.667 296 369c40 27.333 87.333 51.833 142 73.5s104.334 32.5 149.001 32.5c22.667 0 44.5 -4.33301 65.5 -13s31.5 -23.167 31.5 -43.5s-11.833 -49.333 -35.5 -87
s-60.667 -90.667 -111 -159s-93 -132.166 -128 -191.499s-52.5 -100.666 -52.5 -123.999c0 -11.333 4.66699 -17 14 -17c18 0 51.667 18.667 101 56c117.333 89.333 255.333 234.333 414 435c25.333 32 45.666 48 60.999 48c6 0 9 -3 9 -9c0 -2.66699 -1 -6 -3 -10
c0.666992 -2 1 -4 1 -6c0 -14 -8 -33 -24 -57l-118 -167c-48 -69.333 -90.333 -135 -127 -197s-53.667 -98.333 -51 -109l18 6c33.333 18.667 62.333 40.334 87 65.001c8.66699 6.66699 14 10 16 10l2 -2c0 -6 -9 -18.667 -27 -38c-46.667 -40.667 -80 -61 -100 -61
s-30 6.33301 -30 19s17.833 52 53.5 118s92.834 157 171.501 273c-13.333 -16 -34.333 -39.667 -63 -71c-164 -168 -262.333 -265 -295 -291c-48.667 -38 -94 -57 -136 -57zM899.997 711.996c6.66699 6 12.668 8.99902 18.001 8.99902s8 -3.83301 8 -11.5
s-3.33301 -14.667 -10 -21s-26.834 -19.666 -60.501 -39.999s-52.667 -30.5 -57 -30.5s-6.5 2.33301 -6.5 7c0 2 1 4 3 6z" />
    <glyph glyph-name="Ucircumflex" unicode="&#xdb;" horiz-adv-x="801" 
d="M345 -19c-28.667 0 -43.0029 9.99609 -43.0029 29.9961c0 34.667 44.167 114.167 132.5 238.5s141.833 200.833 160.5 229.5c40.667 62.667 61 105.334 61 128.001c0 11.333 -4.33301 18.333 -13 21c-16 6.66699 -34.667 10 -56 10c-73.333 0 -167 -39 -281 -117
c-74.667 -52 -136.5 -112.833 -185.5 -182.5s-73.5 -127.167 -73.5 -172.5c0 -32.667 13.333 -51.334 40 -56.001c10.667 -2 21.334 -3 32.001 -3c34 0 69 11 105 33c18 10.667 40.667 28.334 68 53.001l18 6c-12.667 -24 -39.167 -48.333 -79.5 -73s-81.833 -37 -124.5 -37
c-10 0 -21.667 1.33301 -35 4s-26.166 12.167 -38.499 28.5s-18.5 37.833 -18.5 64.5c0 104.667 98.667 227.667 296 369c40 28.667 87.333 53.5 142 74.5s104.334 31.5 149.001 31.5c22.667 0 44.5 -4.33301 65.5 -13s31.5 -23.167 31.5 -43.5s-11.833 -49.333 -35.5 -87
s-60.667 -90.667 -111 -159s-93 -132.166 -128 -191.499s-52.5 -100.666 -52.5 -123.999c0 -11.333 4.66699 -17 14 -17c18 0 51.667 18.667 101 56c117.333 89.333 255.333 234.333 414 435c25.333 32 45.666 48 60.999 48c6 0 9 -3 9 -9c0 -2.66699 -1 -6 -3 -10
c0.666992 -2 1 -4 1 -6c0 -14 -8 -33 -24 -57l-118 -167c-48 -69.333 -90.333 -135 -127 -197s-53.667 -98.333 -51 -109l18 6c33.333 18.667 62.333 40.334 87 65.001c8.66699 6.66699 14 10 16 10l2 -2c0 -6 -9 -18.667 -27 -38c-46.667 -40.667 -80 -61 -100 -61
s-30 6.33301 -30 19s17.833 52 53.5 118s92.834 157 171.501 273c-13.333 -16 -34.333 -39.667 -63 -71c-164 -168 -262.333 -265 -295 -291c-48.667 -38 -94 -57 -136 -57zM778.997 676.996c-14.667 -4 -22.001 -1.66602 -22.001 7.00098c0 2 3.33301 6 10 12
c50.667 30.667 83.667 52.667 99 66c20 16.667 32 25 36 25c10 0 29 -15.5 57 -46.5s42.5 -48.333 43.5 -52s1.5 -6.16699 1.5 -7.5c0 -6.66699 -2.66699 -10 -8 -10s-19.666 10.667 -42.999 32s-42.333 36.333 -57 45c-4 -2.66699 -15.167 -9.66699 -33.5 -21l-51.5 -33
c-16 -10.667 -26.667 -16.334 -32 -17.001z" />
    <glyph glyph-name="Udieresis" unicode="&#xdc;" horiz-adv-x="801" 
d="M345 -19c-28.667 0 -43.0029 9.99609 -43.0029 29.9961c0 34.667 44.167 114.167 132.5 238.5s141.833 200.833 160.5 229.5c40.667 62.667 61 105.334 61 128.001c0 11.333 -4.33301 18.333 -13 21c-16 6.66699 -34.667 10 -56 10c-73.333 0 -167 -39 -281 -117
c-74.667 -52 -136.5 -112.833 -185.5 -182.5s-73.5 -127.167 -73.5 -172.5c0 -32.667 13.333 -51.334 40 -56.001c10.667 -2 21.334 -3 32.001 -3c34 0 69 11 105 33c18 10.667 40.667 28.334 68 53.001l18 6c-12.667 -24 -39.167 -48.333 -79.5 -73s-81.833 -37 -124.5 -37
c-10 0 -21.667 1.33301 -35 4s-26.166 12.167 -38.499 28.5s-18.5 37.833 -18.5 64.5c0 104.667 98.667 227.667 296 369c40 28.667 87.333 53.5 142 74.5s104.334 31.5 149.001 31.5c22.667 0 44.5 -4.33301 65.5 -13s31.5 -23.167 31.5 -43.5s-11.833 -49.333 -35.5 -87
s-60.667 -90.667 -111 -159s-93 -132.166 -128 -191.499s-52.5 -100.666 -52.5 -123.999c0 -11.333 4.66699 -17 14 -17c18 0 51.667 18.667 101 56c117.333 89.333 255.333 234.333 414 435c25.333 32 45.666 48 60.999 48c6 0 9 -3 9 -9c0 -2.66699 -1 -6 -3 -10
c0.666992 -2 1 -4 1 -6c0 -14 -8 -33 -24 -57l-118 -167c-48 -69.333 -90.333 -135 -127 -197s-53.667 -98.333 -51 -109l18 6c33.333 18.667 62.333 40.334 87 65.001c8.66699 6.66699 14 10 16 10l2 -2c0 -6 -9 -18.667 -27 -38c-46.667 -40.667 -80 -61 -100 -61
s-30 6.33301 -30 19s17.833 52 53.5 118s92.834 157 171.501 273c-13.333 -16 -34.333 -39.667 -63 -71c-164 -168 -262.333 -265 -295 -291c-48.667 -38 -94 -57 -136 -57zM782.997 640.996c-4.66699 0 -9.33203 3.5 -13.999 10.5s-7 14.333 -7 22s9.66699 18.5 29 32.5
c20 14 35.333 21 46 21c0.666992 0 1.66699 -0.333008 3 -1c-0.666992 0 -5.33398 -6 -14.001 -18l-16 -40c-8 -18 -17 -27 -27 -27zM960.999 725.996c-0.666992 0 -5.33203 -6 -13.999 -18l-16 -40c-8 -18 -17 -27 -27 -27c-4.66699 0 -9.33398 3.5 -14.001 10.5
s-7 14.333 -7 22s9.66699 18.5 29 32.5c20 14 35.333 21 46 21zM841.001 724.996c0 0.666992 -0.333008 1 -1 1h1v-1zM962.001 724.996c0 0.666992 -0.333008 1 -1 1h1v-1z" />
    <glyph glyph-name="Yacute" unicode="&#xdd;" horiz-adv-x="882" 
d="M336 -254c-25.333 0 -50.165 8.99805 -74.498 26.998s-36.5 38 -36.5 60c0 14 7 21 21 21c3.33301 0 8.33301 -0.666992 15 -2c8 -28 14.667 -47 20 -57c11.333 -18 30.666 -27 57.999 -27c82 0 182.667 112 302 336l180 321l-273.5 -286.5
c-53.667 -53.667 -90.5 -86.5 -110.5 -98.5c-40 -24 -73 -36 -99 -36c-38 0 -57 22.333 -57 67c0 53.333 22.667 108.333 68 165l42.5 51.5l88 108.5c33.667 42 61.667 82.5 84 121.5s33.5 66.333 33.5 82s-4.66699 25.834 -14 30.501c-19.333 10 -41.333 15 -66 15
c-70.667 0 -168.334 -42.667 -293.001 -128c-52 -35.333 -93.333 -76.333 -124 -123s-46 -89.667 -46 -129s19 -64 57 -74c12 -3.33301 23.667 -5 35 -5c34 0 71.667 14.667 113 44c48.667 32.667 76 50 82 52c-6.66699 -24.667 -33 -51.667 -79 -81
c-50.667 -31.333 -98 -47 -142 -47c-6 0 -17.167 1.16699 -33.5 3.5s-32.5 14.5 -48.5 36.5s-24 48.667 -24 80c0 90.667 66.333 183.334 199 278.001c38.667 28 89.667 53.333 153 76s114.5 34 153.5 34s68.667 -6.16699 89 -18.5s30.5 -32 30.5 -59s-18.667 -69 -56 -126
s-96.333 -134.5 -177 -232.5c-16.667 -19.333 -32 -44.5 -46 -75.5s-21 -55.667 -21 -74s7.16699 -27.5 21.5 -27.5s35.833 10.333 64.5 31c81.333 58 162.5 128.333 243.5 211s140.5 152 178.5 208c27.333 39.333 56.333 59 87 59c10.667 0 16 -3.33301 16 -10
c0 -1.33301 -0.666992 -4 -2 -8l-343 -584c-42.667 -70 -88.167 -122.5 -136.5 -157.5s-92.5 -52.5 -132.5 -52.5zM759.001 652.998c-4.66699 0 -6.99902 1.66699 -6.99902 5s1.33301 6 4 8l105 81c7.33301 6 13 9 17 9c6 0 9 -4 9 -12s-2.66699 -14.667 -8 -20
c-6 -4.66699 -26.333 -17.667 -61 -39s-54.334 -32 -59.001 -32z" />
    <glyph glyph-name="Thorn" unicode="&#xde;" horiz-adv-x="165" 
d="M399 613l-36.999 -7.00195c-4 0 -5.66699 2 -5 6c3.33301 10 17.166 15 41.499 15s41.5 -3.66699 51.5 -11s15 -14.666 15 -21.999s-0.833008 -14.333 -2.5 -21s-11 -23.5 -28 -50.5l-62 -100c-24.333 -39.667 -40.5 -65.167 -48.5 -76.5c6.66699 6 20 12 40 18
c25.333 6.66699 43.333 10 54 10c24 0 44.833 -6.83301 62.5 -20.5s26.5 -33.5 26.5 -59.5s-7.83301 -54.167 -23.5 -84.5s-39.167 -57.833 -70.5 -82.5c-47.333 -36.667 -100.333 -55 -159 -55c-30 0 -51.167 1.83301 -63.5 5.5s-24.833 11.834 -37.5 24.501
c-116 -170 -174 -269.667 -174 -299c0 -8 4.33301 -12 13 -12l34 11c2 0 2.33301 -0.666992 1 -2c-1.33301 -4.66699 -7 -9.16699 -17 -13.5s-17.667 -6.5 -23 -6.5c-26.667 0 -40 12 -40 36c0 33.333 24.333 87.333 73 162l346 527c26.667 44 41.667 73 45 87
c4 14 0 21 -12 21zM456.001 307.998c0 25.333 -15 38 -45 38s-57.333 -6.33301 -82 -19c-9.33301 -4.66699 -24 -17 -44 -37c-69.333 -98 -109.333 -155 -120 -171c14 -12.667 39.333 -19 76 -19c51.333 0 95.333 14.333 132 43c55.333 44 83 99 83 165z" />
    <glyph glyph-name="germandbls" unicode="&#xdf;" horiz-adv-x="581" 
d="M159 120c-12 0 -18 -11.5 -18 -34.5s9 -43.5 27 -61.5c9.33301 -9.33301 21.333 -16.333 36 -21c-16.667 16.667 -29 47 -37 91c-3.33301 17.333 -6 26 -8 26zM-393 -152c-18 -22.667 -27 -45.3301 -27 -67.9971s8.33301 -40.834 25 -54.501s41 -20.5 73 -20.5
s61 10.333 87 31c55.333 42 108.166 100 158.499 174s91.166 145.333 122.499 214c104 225.333 177.333 371.666 220 438.999s90.334 101 143.001 101c44.667 0 78.334 -8.33301 101.001 -25s34 -49.334 34 -98.001c0 -35.333 -11 -63 -33 -83s-55.333 -37.333 -100 -52
c-18.667 -6.66699 -33.167 -12.334 -43.5 -17.001s-21.333 -13 -33 -25s-17.5 -26 -17.5 -42c0 -26 23.333 -45.667 70 -59c74.667 -15.333 120.667 -29 138 -41c24 -18 36 -38.667 36 -62c0 -35.333 -17.333 -67.666 -52 -96.999s-72.334 -50.5 -113.001 -63.5
s-78.334 -19.5 -113.001 -19.5c-3.33301 0 -19 2.33301 -47 7c4.66699 -2.66699 17.167 -8.16699 37.5 -16.5s33 -13.166 38 -14.499s7.5 -2.66602 7.5 -3.99902c0 -2.66699 -3.33301 -4 -10 -4s-20.834 4.83301 -42.501 14.5s-37.5 18.5 -47.5 26.5
c-28.667 4 -49 11.667 -61 23c-9.33301 7.33301 -17.5 17.666 -24.5 30.999s-10.5 26.166 -10.5 38.499s4.16699 23.833 12.5 34.5s18.833 16 31.5 16c11.333 0 18 -9.66699 20 -29c2.66699 -19.333 5.5 -34.333 8.5 -45l9.5 -32.5c3.33301 -11 9 -20.167 17 -27.5
c14.667 -3.33301 29.334 -5 44.001 -5c66.667 0 131.667 25.333 195 76c30 24 45 48.833 45 74.5s-17 42.834 -51 51.501l-108 27c-21.333 6 -38.666 16 -51.999 30s-20 29.667 -20 47c0 29.333 11.667 54.5 35 75.5s50.833 36.5 82.5 46.5s57.167 26.167 76.5 48.5
s29 47.666 29 75.999s-7.5 51.333 -22.5 69s-35.333 26.5 -61 26.5s-52.667 -17.667 -81 -53s-56.5 -81.333 -84.5 -138l-88 -187c-30.667 -68 -63.834 -136.167 -99.501 -204.5s-72.667 -130.833 -111 -187.5s-81.666 -102.667 -129.999 -138s-97.833 -53 -148.5 -53
c-35.333 0 -63.166 7.66699 -83.499 23s-30.5 34.333 -30.5 57c0 22 7 45 21 69l15 14c2 4 6 6 12 6z" />
    <glyph glyph-name="agrave" unicode="&#xe0;" horiz-adv-x="412" 
d="M332 299l14.002 3c7.33301 0 14.333 -3.16699 21 -9.5s10 -11 10 -14s-20.667 -35 -62 -96s-62 -103.5 -62 -127.5c0 -2 0.333008 -4 1 -6c3.33301 -15.333 10.666 -23 21.999 -23c34.667 0 98 57.333 190 172c2 2.66699 4.33301 4 7 4s4 -2.5 4 -7.5s-3 -11.5 -9 -19.5
c-85.333 -114 -150.333 -171 -195 -171c-6 0 -11.667 1 -17 3c-29.333 11.333 -44 33.333 -44 66c0 11.333 1.33301 22.666 4 33.999l-63 -60c-38.667 -34.667 -66.834 -52 -84.501 -52s-34.5 5.66699 -50.5 17c-18 13.333 -27 31 -27 53c0 48.667 34 106.834 102 174.501
s130.333 101.5 187 101.5c22 0 36.667 -7.66699 44 -23l5 -13.5c1.33301 -3.66699 2.33301 -5.5 3 -5.5zM33.002 53c0 -24 8.33301 -36.001 25 -36.001c38 0 90.333 42.333 157 127c65.333 88.667 101 137.334 107 146.001c-5.33301 9.33301 -14 14 -26 14
c-40.667 0 -94.667 -31.5 -162 -94.5s-101 -115.167 -101 -156.5zM339.002 396.999c0 -4 -1.66797 -6.00195 -5.00098 -6.00195c-4.66699 0 -20.167 8 -46.5 24s-44.166 28 -53.499 36c-4.66699 2.66699 -7 7.5 -7 14.5s2.5 10.5 7.5 10.5s22.167 -11.167 51.5 -33.5
s45.5 -35.166 48.5 -38.499s4.5 -5.66602 4.5 -6.99902z" />
    <glyph glyph-name="aacute" unicode="&#xe1;" horiz-adv-x="412" 
d="M332 299l14.002 3c7.33301 0 14.333 -3.16699 21 -9.5s10 -11 10 -14s-20.667 -35 -62 -96s-62 -103.5 -62 -127.5c0 -2 0.333008 -4 1 -6c3.33301 -15.333 10.666 -23 21.999 -23c34.667 0 98 57.333 190 172c2 2.66699 4.33301 4 7 4s4 -2.5 4 -7.5s-3 -11.5 -9 -19.5
c-85.333 -114 -150.333 -171 -195 -171c-6 0 -11.667 1 -17 3c-29.333 11.333 -44 33.333 -44 66c0 11.333 1.33301 22.666 4 33.999l-63 -60c-38.667 -34.667 -66.834 -52 -84.501 -52s-34.5 5.66699 -50.5 17c-18 13.333 -27 31 -27 53c0 48.667 34 106.834 102 174.501
s130.333 101.5 187 101.5c22 0 36.667 -7.66699 44 -23l5 -13.5c1.33301 -3.66699 2.33301 -5.5 3 -5.5zM33.002 53c0 -24 8.33301 -36.001 25 -36.001c38 0 90.333 42.333 157 127c65.333 88.667 101 137.334 107 146.001c-5.33301 9.33301 -14 14 -26 14
c-40.667 0 -94.667 -31.5 -162 -94.5s-101 -115.167 -101 -156.5zM407.002 487.999c-6 -4.66699 -26.667 -17.667 -62 -39s-55 -32 -59 -32s-6 2 -6 6c0 2 1 4 3 6l106 82c7.33301 6 13 9 17 9c6 0 9 -4 9 -12s-2.66699 -14.667 -8 -20z" />
    <glyph glyph-name="acircumflex" unicode="&#xe2;" horiz-adv-x="412" 
d="M332 299l14.002 3c7.33301 0 14.333 -3.16699 21 -9.5s10 -11 10 -14s-20.667 -35 -62 -96s-62 -103.5 -62 -127.5c0 -2 0.333008 -4 1 -6c3.33301 -15.333 10.666 -23 21.999 -23c34.667 0 98 57.333 190 172c2 2.66699 4.33301 4 7 4s4 -2.5 4 -7.5s-3 -11.5 -9 -19.5
c-85.333 -114 -150.333 -171 -195 -171c-6 0 -11.667 1 -17 3c-29.333 11.333 -44 33.333 -44 66c0 11.333 1.33301 22.666 4 33.999l-63 -60c-38.667 -34.667 -66.834 -52 -84.501 -52s-34.5 5.66699 -50.5 17c-18 13.333 -27 31 -27 53c0 48.667 34 106.834 102 174.501
s130.333 101.5 187 101.5c22 0 36.667 -7.66699 44 -23l5 -13.5c1.33301 -3.66699 2.33301 -5.5 3 -5.5zM33.002 53c0 -24 8.33301 -36.001 25 -36.001c38 0 90.333 42.333 157 127c65.333 88.667 101 137.334 107 146.001c-5.33301 9.33301 -14 14 -26 14
c-40.667 0 -94.667 -31.5 -162 -94.5s-101 -115.167 -101 -156.5zM264.002 378.999c-2.66699 0 -4 1.99902 -4 5.99902s11.333 15.333 34 34s37 28.667 43 30l4 -1c15.333 -17.333 39 -37.666 71 -60.999l3 -6l-3 -4c-7.33301 0 -21 6.33301 -41 19s-34 23 -42 31
c-38 -32 -59.667 -48 -65 -48z" />
    <glyph glyph-name="atilde" unicode="&#xe3;" horiz-adv-x="412" 
d="M332 299l14.002 3c7.33301 0 14.333 -3.16699 21 -9.5s10 -11 10 -14s-20.667 -35 -62 -96s-62 -103.5 -62 -127.5c0 -2 0.333008 -4 1 -6c3.33301 -15.333 10.666 -23 21.999 -23c34.667 0 98 57.333 190 172c2 2.66699 4.33301 4 7 4s4 -2.5 4 -7.5s-3 -11.5 -9 -19.5
c-85.333 -114 -150.333 -171 -195 -171c-6 0 -11.667 1 -17 3c-29.333 11.333 -44 33.333 -44 66c0 11.333 1.33301 22.666 4 33.999l-63 -60c-38.667 -34.667 -66.834 -52 -84.501 -52s-34.5 5.66699 -50.5 17c-18 13.333 -27 31 -27 53c0 48.667 34 106.834 102 174.501
s130.333 101.5 187 101.5c22 0 36.667 -7.66699 44 -23l5 -13.5c1.33301 -3.66699 2.33301 -5.5 3 -5.5zM33.002 53c0 -24 8.33301 -36.001 25 -36.001c38 0 90.333 42.333 157 127c65.333 88.667 101 137.334 107 146.001c-5.33301 9.33301 -14 14 -26 14
c-40.667 0 -94.667 -31.5 -162 -94.5s-101 -115.167 -101 -156.5zM321.002 441.999l69.001 -15.001c12 0 22 5 30 15c1.33301 0.666992 2.5 1 3.5 1s1.5 -1 1.5 -3c0 -6.66699 -6.33301 -14.334 -19 -23.001s-22.834 -13 -30.501 -13s-19.5 3 -35.5 9
c-14 6.66699 -25.167 10 -33.5 10s-22.5 -6.33301 -42.5 -19c-0.666992 0.666992 -1 1.33398 -1 2.00098c0 8.66699 10.333 18.334 31 29.001c8.66699 4.66699 17.667 7 27 7z" />
    <glyph glyph-name="adieresis" unicode="&#xe4;" horiz-adv-x="412" 
d="M332 299l14.002 3c7.33301 0 14.333 -3.16699 21 -9.5s10 -11 10 -14s-20.667 -35 -62 -96s-62 -103.5 -62 -127.5c0 -2 0.333008 -4 1 -6c3.33301 -15.333 10.666 -23 21.999 -23c34.667 0 98 57.333 190 172c2 2.66699 4.33301 4 7 4s4 -2.5 4 -7.5s-3 -11.5 -9 -19.5
c-85.333 -114 -150.333 -171 -195 -171c-6 0 -11.667 1 -17 3c-29.333 11.333 -44 33.333 -44 66c0 11.333 1.33301 22.666 4 33.999l-63 -60c-38.667 -34.667 -66.834 -52 -84.501 -52s-34.5 5.66699 -50.5 17c-18 13.333 -27 31 -27 53c0 48.667 34 106.834 102 174.501
s130.333 101.5 187 101.5c22 0 36.667 -7.66699 44 -23l5 -13.5c1.33301 -3.66699 2.33301 -5.5 3 -5.5zM33.002 53c0 -24 8.33301 -36.001 25 -36.001c38 0 90.333 42.333 157 127c65.333 88.667 101 137.334 107 146.001c-5.33301 9.33301 -14 14 -26 14
c-40.667 0 -94.667 -31.5 -162 -94.5s-101 -115.167 -101 -156.5zM380.002 397.999c-4 0 -8 2.83398 -12 8.50098s-6 10.5 -6 14.5c0 8.66699 8.33301 18.667 25 30s27.167 17 31.5 17s6.83301 -0.333008 7.5 -1v1c0.666992 -0.666992 1 -1.33398 1 -2.00098
c-4 -5.33301 -8 -10 -12 -14l-14 -32c-6 -14.667 -13 -22 -21 -22zM281.002 398c-4 0 -7.83301 2.83301 -11.5 8.5s-5.5 10.5 -5.5 14.5c0 8.66699 8.33301 18.667 25 30s27.167 17 31.5 17s6.83301 -0.333008 7.5 -1v-1l-11 -14l-14 -32c-6 -14.667 -13.333 -22 -22 -22z
" />
    <glyph glyph-name="aring" unicode="&#xe5;" horiz-adv-x="412" 
d="M33 53c0 -24 8.33203 -36 24.999 -36c38.667 0 91.334 42.333 158.001 127l106 146c-5.33301 9.33301 -14 14 -26 14c-40.667 0 -94.667 -31.5 -162 -94.5s-101 -115.167 -101 -156.5zM331.999 299l14.0029 3c7.33301 0 14.333 -3 21 -9s10 -10.667 10 -14
s-20.667 -35.5 -62 -96.5s-62 -103.5 -62 -127.5c0 -2 0.333008 -4 1 -6c3.33301 -15.333 10.666 -23 21.999 -23c34.667 0 98 57.333 190 172c2 2.66699 4.33301 4 7 4s4 -2.5 4 -7.5s-3 -11.5 -9 -19.5c-85.333 -114 -150.333 -171 -195 -171c-6 0 -11.667 1 -17 3
c-29.333 11.333 -44 33.333 -44 66c0 11.333 1.33301 22.666 4 33.999l-62 -60c-39.333 -34.667 -67.833 -52 -85.5 -52s-34.5 5.66699 -50.5 17c-18 13.333 -27 31.666 -27 54.999c0 48.667 32 104.334 96 167.001c70.667 70.667 134 106.334 190 107.001
c-3.33301 6.66699 -5 15.5 -5 26.5s3.66699 24.5 11 40.5s16.666 25.667 27.999 29c11.333 21.333 28.333 32 51 32c12 0 22.167 -5.16699 30.5 -15.5s12.5 -24.5 12.5 -42.5s-8.33301 -36.5 -25 -55.5s-36 -29.833 -58 -32.5c1.33301 -2 2.66602 -5 3.99902 -9
c2 -10 4 -15 6 -15zM364.002 365.5c11.333 15.667 17.002 33.833 17.002 54.5s-7.33301 31 -22 31c-6.66699 0 -16.334 -4.66699 -29.001 -14l11 -5c-0.666992 -2 -6.16699 -10.833 -16.5 -26.5s-15.5 -30.167 -15.5 -43.5s5 -20 15 -20
c15.333 0 28.666 7.83301 39.999 23.5z" />
    <glyph glyph-name="ae" unicode="&#xe6;" horiz-adv-x="282" 
d="M336 90c0 -2 -0.331055 -3.66797 -0.998047 -5.00098c-12.667 -20.667 -33.834 -40.667 -63.501 -60s-54.167 -29 -73.5 -29s-32.666 3.66699 -39.999 11c-4.66699 9.33301 -10.334 19 -17.001 29c-2.66699 13.333 -4 24.833 -4 34.5s0.333008 17.834 1 24.501
c-37.333 -66 -70.333 -99 -99 -99c-17.333 0 -26 9.33301 -26 28c0 28 13.667 62.667 41 104c37.333 54 74 81 110 81c18.667 0 32.667 -6.66699 42 -20c17.333 15.333 35 23 53 23c14 0 21 -8.33301 21 -25s-12.333 -36.5 -37 -59.5s-46.667 -38.167 -66 -45.5
c-4 -13.333 -6 -25 -6 -35c0 -22 10 -33 30 -33c38.667 0 78.667 23.667 120 71c5.33301 5.33301 9.16602 8 11.499 8s3.5 -1 3.5 -3zM255.002 178.999c0 6 -3.33203 9 -9.99902 9c-8.66699 0 -20.334 -11.833 -35.001 -35.5s-24 -41.5 -28 -53.5
c16 7.33301 32.167 19 48.5 35s24.5 31 24.5 45zM161.003 181.999c-23.333 0 -49.167 -17.668 -77.5 -53.001s-42.5 -65.666 -42.5 -90.999c0 -11.333 4.33301 -17 13 -17c18 0 40.333 22.333 67 67c20 32 36 63 48 93c-1.33301 0.666992 -4 1 -8 1z" />
    <glyph glyph-name="ccedilla" unicode="&#xe7;" horiz-adv-x="283" 
d="M80 -181c0 -31.333 -16.165 -55.665 -48.498 -72.998s-65.833 -26 -100.5 -26c-6 0 -9 3.66699 -9 11c0 3.33301 3 6 9 8c32 5.33301 56 9 72 11c23.333 7.33301 35 26.666 35 57.999c0 8.66699 -8.66699 25.5 -26 50.5s-26 45.5 -26 61.5s4.16699 31.667 12.5 47
s19.833 26 34.5 32c-27.333 13.333 -41 34.333 -41 63c0 46.667 29.333 100.667 88 162s111.334 92 158.001 92c15.333 0 27.833 -4.16699 37.5 -12.5s14.5 -19.666 14.5 -33.999s-4.33301 -29.333 -13 -45s-21.667 -23.5 -39 -23.5s-26 5.33301 -26 16
c0 7.33301 4.5 18.5 13.5 33.5s13.5 23 13.5 24s-1 1.5 -3 1.5c-18.667 -2 -44.167 -15.333 -76.5 -40s-54.5 -45.334 -66.5 -62.001l-39 -57c-6.66699 -10.667 -11.5 -23.334 -14.5 -38.001s-4.5 -25.667 -4.5 -33s4.16699 -15.666 12.5 -24.999s20.166 -14 35.499 -14
c33.333 0 74.666 19.5 123.999 58.5s87.333 76.167 114 111.5c3.33301 4 7.33301 6 12 6s7 -1.33301 7 -4s-1.66699 -6 -5 -10c-36.667 -48.667 -80.5 -91.167 -131.5 -127.5s-93.5 -54.5 -127.5 -54.5c-9.33301 0 -15.333 0.666992 -18 2s-4.33398 2 -5.00098 2
c-21.333 -10.667 -32 -30.334 -32 -59.001c0 -7.33301 9.83301 -23.5 29.5 -48.5s29.5 -46.5 29.5 -64.5z" />
    <glyph glyph-name="egrave" unicode="&#xe8;" horiz-adv-x="257" 
d="M51 -13c-7.33301 0 -14.002 1 -20.002 3c-42.667 12 -64 36 -64 72c0 46.667 29.333 100.667 88 162s111.334 92 158.001 92c15.333 0 27.833 -4.16699 37.5 -12.5s14.5 -18.5 14.5 -30.5c0 -37.333 -28.167 -73 -84.5 -107s-102.166 -51 -137.499 -51
c-5.33301 0 -10 0.666992 -14 2c-10 -18 -15 -37 -15 -57c0 -34.667 16.5 -52 49.5 -52s75.833 22.333 128.5 67c39.333 31.333 74 66.333 104 105c6 8 11.167 12 15.5 12s6.5 -2 6.5 -6s-2.66699 -9.66699 -8 -17c-37.333 -48.667 -81 -91.167 -131 -127.5
s-92.667 -54.5 -128 -54.5zM239.998 275c0 8 -8.49902 12 -25.499 12s-41.167 -13 -72.5 -39c-42 -34.667 -74.667 -71 -98 -109c4 -1.33301 8.33301 -2 13 -2c25.333 0 59.166 13.5 101.499 40.5s68.833 56.5 79.5 88.5c1.33301 3.33301 2 6.33301 2 9zM263.999 364
c0 -3.33301 -1.33301 -5 -4 -5c-5.33301 0 -39.333 19.333 -102 58c-4.66699 4 -7 9.5 -7 16.5s2.33301 10.5 7 10.5s12.5 -4 23.5 -12s37.5 -29 79.5 -63c2 -2 3 -3.66699 3 -5z" />
    <glyph glyph-name="eacute" unicode="&#xe9;" horiz-adv-x="257" 
d="M227 368c-4 0 -6 2 -6 6c0 2 1 4 3 6l105 82c7.33301 5.33301 13 8 17 8c6.66699 0 10 -4.16699 10 -12.5s-3.33301 -14.833 -10 -19.5c-6.66699 -6 -27.167 -19.167 -61.5 -39.5s-53.5 -30.5 -57.5 -30.5zM51 -13c-7.33301 0 -14.002 1 -20.002 3
c-42.667 12 -64 36 -64 72c0 46.667 29.333 100.667 88 162s111.334 92 158.001 92c15.333 0 27.833 -4.16699 37.5 -12.5s14.5 -18.5 14.5 -30.5c0 -37.333 -28.167 -73 -84.5 -107s-102.166 -51 -137.499 -51c-5.33301 0 -10 0.666992 -14 2c-10 -18 -15 -37 -15 -57
c0 -34.667 16.5 -52 49.5 -52s75.833 22.333 128.5 67c39.333 31.333 74 66.333 104 105c6 8 11.167 12 15.5 12s6.5 -2 6.5 -6s-2.66699 -9.66699 -8 -17c-37.333 -48.667 -81 -91.167 -131 -127.5s-92.667 -54.5 -128 -54.5zM239.998 275c0 8 -8.49902 12 -25.499 12
s-41.167 -13 -72.5 -39c-42 -34.667 -74.667 -71 -98 -109c4 -1.33301 8.33301 -2 13 -2c25.333 0 59.166 13.5 101.499 40.5s68.833 56.5 79.5 88.5c1.33301 3.33301 2 6.33301 2 9z" />
    <glyph glyph-name="ecircumflex" unicode="&#xea;" horiz-adv-x="257" 
d="M51 -13c-7.33301 0 -14.002 1 -20.002 3c-42.667 12 -64 36 -64 72c0 46.667 29.333 100.667 88 162s111.334 92 158.001 92c15.333 0 27.833 -4.16699 37.5 -12.5s14.5 -18.5 14.5 -30.5c0 -37.333 -28.167 -73 -84.5 -107s-102.166 -51 -137.499 -51
c-5.33301 0 -10 0.666992 -14 2c-10 -18 -15 -37 -15 -57c0 -34.667 16.5 -52 49.5 -52s75.833 22.333 128.5 67c39.333 31.333 74 66.333 104 105c6 8 11.167 12 15.5 12s6.5 -2 6.5 -6s-2.66699 -9.66699 -8 -17c-37.333 -48.667 -81 -91.167 -131 -127.5
s-92.667 -54.5 -128 -54.5zM239.998 275c0 8 -8.49902 12 -25.499 12s-41.167 -13 -72.5 -39c-42 -34.667 -74.667 -71 -98 -109c4 -1.33301 8.33301 -2 13 -2c25.333 0 59.166 13.5 101.499 40.5s68.833 56.5 79.5 88.5c1.33301 3.33301 2 6.33301 2 9zM239.999 399
c-38.667 -31.333 -59.833 -47.001 -63.5 -47.001s-5.5 2 -5.5 6s11.333 15.333 34 34s37 28.667 43 30l4 -2c15.333 -16.667 39 -37 71 -61l3 -5l-3 -5c-8.66699 1.33301 -23 8.33301 -43 21s-33.333 22.334 -40 29.001z" />
    <glyph glyph-name="edieresis" unicode="&#xeb;" horiz-adv-x="257" 
d="M51 -13c-7.33301 0 -14.002 1 -20.002 3c-42.667 12 -64 36 -64 72c0 46.667 29.333 100.667 88 162s111.334 92 158.001 92c15.333 0 27.833 -4.16699 37.5 -12.5s14.5 -18.5 14.5 -30.5c0 -37.333 -28.167 -73 -84.5 -107s-102.166 -51 -137.499 -51
c-5.33301 0 -10 0.666992 -14 2c-10 -18 -15 -37 -15 -57c0 -34.667 16.5 -52 49.5 -52s75.833 22.333 128.5 67c39.333 31.333 74 66.333 104 105c6 8 11.167 12 15.5 12s6.5 -2 6.5 -6s-2.66699 -9.66699 -8 -17c-37.333 -48.667 -81 -91.167 -131 -127.5
s-92.667 -54.5 -128 -54.5zM239.998 275c0 8 -8.49902 12 -25.499 12s-41.167 -13 -72.5 -39c-42 -34.667 -74.667 -71 -98 -109c4 -1.33301 8.33301 -2 13 -2c25.333 0 59.166 13.5 101.499 40.5s68.833 56.5 79.5 88.5c1.33301 3.33301 2 6.33301 2 9zM302.999 343
c-4 0 -7.83301 2.83203 -11.5 8.49902s-5.5 11.834 -5.5 18.501s8.33301 15.667 25 27s29 17 37 17c0.666992 0 1.66699 -0.666992 3 -2l-12 -14l-14 -33c-6 -14.667 -13.333 -22 -22 -22zM204.999 342.999c-4 0 -7.83301 2.83105 -11.5 8.49805s-5.5 11.834 -5.5 18.501
s8 15.334 24 26.001c16 12 28.333 18 37 18c1.33301 0 2.33301 -0.333008 3 -1v-1c-4 -5.33301 -8 -10 -12 -14c-5.33301 -14.667 -10.5 -27.5 -15.5 -38.5s-11.5 -16.5 -19.5 -16.5z" />
    <glyph glyph-name="igrave" unicode="&#xec;" 
d="M44 -12c-39.333 0 -58.999 22.333 -58.999 67c0 36 19.667 85.833 59 149.5s71 95.834 95 96.501c6.66699 0 14.167 -2.66699 22.5 -8s12.5 -10.666 12.5 -15.999c-3.33301 -4.66699 -7.33301 -9.83398 -12 -15.501l-15 -18.5l-22 -28.5l-27 -35.5
c-50 -64.667 -75 -109 -75 -133s9 -36 27 -36c24 0 57.167 17.667 99.5 53s73.166 63.666 92.499 84.999c4.66699 6.66699 9 10 13 10c2.66699 0 4 -2 4 -6c0 -20 -30.333 -52.333 -91 -97s-102 -67 -124 -67zM107.001 414c-5.33301 5.33301 -8 11.168 -8 17.501
s2.5 9.5 7.5 9.5s21.333 -10.5 49 -31.5s44 -33.833 49 -38.5s7.5 -8.33398 7.5 -11.001s-1.83301 -4 -5.5 -4s-19.667 8.33301 -48 25s-45.5 27.667 -51.5 33z" />
    <glyph glyph-name="iacute" unicode="&#xed;" 
d="M44 -12c-39.333 0 -58.999 22.333 -58.999 67c0 36 19.667 85.833 59 149.5s71 95.834 95 96.501c6.66699 0 14.167 -2.66699 22.5 -8s12.5 -10.666 12.5 -15.999c-3.33301 -4.66699 -7.33301 -9.83398 -12 -15.501l-15 -18.5l-22 -28.5l-27 -35.5
c-50 -64.667 -75 -109 -75 -133s9 -36 27 -36c24 0 57.167 17.667 99.5 53s73.166 63.666 92.499 84.999c4.66699 6.66699 9 10 13 10c2.66699 0 4 -2 4 -6c0 -20 -30.333 -52.333 -91 -97s-102 -67 -124 -67zM286.001 404c-7.33301 -5.33301 -28.168 -18.5 -62.501 -39.5
s-53.666 -31.5 -57.999 -31.5s-6.5 1.33301 -6.5 4s1 5 3 7l106 83c6.66699 6 12 9 16 9c6.66699 0 10 -4 10 -12s-2.66699 -14.667 -8 -20z" />
    <glyph glyph-name="icircumflex" unicode="&#xee;" 
d="M44 -12c-39.333 0 -58.999 22.333 -58.999 67c0 36 19.667 85.833 59 149.5s71 95.834 95 96.501c6.66699 0 14.167 -2.66699 22.5 -8s12.5 -10.666 12.5 -15.999c-3.33301 -4.66699 -7.33301 -9.83398 -12 -15.501l-15 -18.5l-22 -28.5l-27 -35.5
c-50 -64.667 -75 -109 -75 -133s9 -36 27 -36c24 0 57.167 17.667 99.5 53s73.166 63.666 92.499 84.999c4.66699 6.66699 9 10 13 10c2.66699 0 4 -2 4 -6c0 -20 -30.333 -52.333 -91 -97s-102 -67 -124 -67zM176.001 394c-38.667 -32 -59.834 -48 -63.501 -48
s-5.5 2 -5.5 6s11.333 15.333 34 34s37 28.667 43 30l3 -1c12.667 -14 36.334 -34.667 71.001 -62l3 -5l-2 -4c-8 0 -21.5 6 -40.5 18s-33.167 22.667 -42.5 32z" />
    <glyph glyph-name="idieresis" unicode="&#xef;" 
d="M44 -12c-39.333 0 -58.999 22.333 -58.999 67c0 36 19.667 85.833 59 149.5s71 95.834 95 96.501c6.66699 0 14.167 -2.66699 22.5 -8s12.5 -10.666 12.5 -15.999c-3.33301 -4.66699 -7.33301 -9.83398 -12 -15.501l-15 -18.5l-22 -28.5l-27 -35.5
c-50 -64.667 -75 -109 -75 -133s9 -36 27 -36c24 0 57.167 17.667 99.5 53s73.166 63.666 92.499 84.999c4.66699 6.66699 9 10 13 10c2.66699 0 4 -2 4 -6c0 -20 -30.333 -52.333 -91 -97s-102 -67 -124 -67zM222.001 357c-4 0 -7.83301 2.83105 -11.5 8.49805
s-5.5 11.834 -5.5 18.501s8 15.334 24 26.001c16 12 28.333 18 37 18c1.33301 0 2.33301 -0.333008 3 -1v-1l-11 -14l-14 -33c-6 -14.667 -13.333 -22 -22 -22zM124.001 356.998c-4 0 -7.83398 2.83105 -11.501 8.49805s-5.5 11.834 -5.5 18.501s8 15.334 24 26.001
c16 12 28.333 18 37 18c1.33301 0 2.33301 -0.333008 3 -1v-1c-4 -5.33301 -8 -10 -12 -14c-3.33301 -7.33301 -7.66602 -18.333 -12.999 -33c-6.66699 -14.667 -14 -22 -22 -22z" />
    <glyph glyph-name="eth" unicode="&#xf0;" horiz-adv-x="379" 
d="M124 322c23.333 28.667 47.3359 49.3379 72.0029 62.0049s47 19 67 19s37.333 -5.66699 52 -17c0.666992 4 1 8.66699 1 14c0 33.333 -14.333 88 -43 164c-46 -8 -75.5 -12 -88.5 -12s-22.333 1.16699 -28 3.5s-7.5 6.83301 -5.5 13.5
c0 7.33301 7.66699 13.166 23 17.499s44.666 8.16602 87.999 11.499c-8 19.333 -20.5 43.833 -37.5 73.5s-25 47.5 -24 53.5s4.16699 10.833 9.5 14.5s9.83301 5.5 13.5 5.5s7.16699 -0.666992 10.5 -2c20.667 -6.66699 47 -53.334 79 -140.001
c53.333 4.66699 86.666 7 99.999 7c18 0 27 -1.33301 27 -4c-2 -10 -41.333 -21.667 -118 -35c20.667 -64.667 31 -129.667 31 -195c0 -34.667 -3.83301 -73.334 -11.5 -116.001s-26.334 -86.334 -56.001 -131.001s-65.167 -78.334 -106.5 -101.001c-28 -16 -55 -24 -81 -24
c-58.667 0 -88 28 -88 84c0 20.667 4.66699 46.334 14 77.001c18 46.667 51.333 99 100 157zM62.0029 73.0039c0 -30 14.0029 -45.001 42.0029 -45.001c16.667 0 38 7.5 64 22.5s53.333 42.167 82 81.5c33.333 47.333 52.666 98.333 57.999 153c2 8.66699 3 16.334 3 23.001
c0 20 -8 32.667 -24 38l-9 2c-2.66699 3.33301 -8 5 -16 5c-16.667 0 -38.334 -13.5 -65.001 -40.5s-51.334 -57.833 -74.001 -92.5c-40.667 -62 -61 -111 -61 -147z" />
    <glyph glyph-name="ntilde" unicode="&#xf1;" horiz-adv-x="403" 
d="M355 239c-70 -82.667 -105 -142.667 -105 -180c0 -21.333 4.66699 -32 14 -32c15.333 0 38.833 13.167 70.5 39.5s59.167 53.5 82.5 81.5c5.33301 5.33301 9.33301 8 12 8s4 -1.83301 4 -5.5s-7.83301 -16 -23.5 -37s-38.834 -45.5 -69.501 -73.5
s-55.334 -42 -74.001 -42c-40 0 -60 22.667 -60 68c0 26.667 13.333 63.334 40 110.001l64 104c-45.333 -33.333 -85.666 -69.833 -120.999 -109.5s-67.5 -78.167 -96.5 -115.5s-45.833 -56 -50.5 -56c-10 0 -17.833 4.16699 -23.5 12.5s-8.5 15.833 -8.5 22.5
c0 19.333 20.333 68.666 61 147.999c-7.33301 -11.333 -34.333 -39.333 -81 -84c-8 -8 -14.167 -12 -18.5 -12s-6.5 1 -6.5 3c0 3.33301 8.16699 13.166 24.5 29.499s47.333 53.333 93 111s71.834 86.5 78.501 86.5c18 0 27 -7 27 -21c0 -4 -1 -8 -3 -12
c-60 -83.333 -96 -146.333 -108 -189c155.333 155.333 249.666 233 282.999 233c3.33301 0.666992 6.33301 1 9 1c18.667 0 28 -8.33301 28 -25c0 -3.33301 -0.666992 -6.66602 -2 -9.99902s-14.666 -21.333 -39.999 -54zM419 437
c0.666992 0.666992 1.66602 0.998047 2.99902 0.998047s2 -1.66699 2 -5c0 -10 -13 -24 -39 -42c-8.66699 -5.33301 -18.5 -8 -29.5 -8s-27.333 4.5 -49 13.5s-38 13.5 -49 13.5s-21.833 -4.33301 -32.5 -13s-17.667 -13 -21 -13c-0.666992 0.666992 -1 1.33398 -1 2.00098
c0 10.667 14.333 24.334 43 41.001c10.667 6.66699 21.834 10 33.501 10s28 -3.5 49 -10.5s38.333 -10.5 52 -10.5s26.5 7 38.5 21z" />
    </font>
</defs>
</svg>
