<?xml version="1.0" standalone="no"?>
<!DOCTYPE svg PUBLIC "-//W3C//DTD SVG 1.1//EN" "http://www.w3.org/Graphics/SVG/1.1/DTD/svg11.dtd" >
<svg>
<metadata>
Created by FontForge 20090914 at Fri Feb  7 08:04:22 2014
 By www-data
Copyright (c) 2010 by Anton Koovit.
</metadata>
<defs>
<font id="Arvo-Bold" horiz-adv-x="1245" >
  <font-face 
    font-family="Arvo"
    font-weight="700"
    font-stretch="normal"
    units-per-em="2048"
    panose-1="2 0 0 0 0 0 0 0 0 0"
    ascent="1638"
    descent="-410"
    x-height="1036"
    cap-height="1516"
    bbox="-209 -512 2337 2026"
    underline-thickness="102"
    underline-position="-103"
    unicode-range="U+0020-U+2212"
  />
<missing-glyph horiz-adv-x="1141" 
d="M102 1516h936v-1516h-936v1516zM205 102h731v1311h-731v-1311z" />
    <glyph glyph-name=".notdef" horiz-adv-x="1141" 
d="M102 1516h936v-1516h-936v1516zM205 102h731v1311h-731v-1311z" />
    <glyph glyph-name="space" unicode=" " horiz-adv-x="410" 
 />
    <glyph glyph-name="exclam" unicode="!" horiz-adv-x="696" 
d="M139 145c0 24.667 4.5 47.834 13.5 69.501s21.5 40.667 37.5 57s34.833 29.166 56.5 38.499s45.167 14 70.5 14c24 0 46.833 -4.66699 68.5 -14s40.5 -22.166 56.5 -38.499s28.667 -35.333 38 -57s14 -44.834 14 -69.501s-4.66699 -47.834 -14 -69.501
s-22 -40.5 -38 -56.5s-34.833 -28.667 -56.5 -38s-44.5 -14 -68.5 -14c-25.333 0 -48.833 4.66699 -70.5 14s-40.5 22 -56.5 38s-28.5 34.833 -37.5 56.5s-13.5 44.834 -13.5 69.501zM139 1577h369l-41 -1067h-287z" />
    <glyph glyph-name="quotedbl" unicode="&#x22;" horiz-adv-x="651" 
d="M289 1059h-207l-41 518h266zM588 1059h-199l-14 518h260z" />
    <glyph glyph-name="numbersign" unicode="#" horiz-adv-x="1538" 
d="M166 1198h181l63 318h331l-62 -318h326l62 318h332l-62 -318h160l-63 -283h-152l-69 -354h188l-64 -280h-179l-54 -281h-334l55 281h-322l-54 -281h-338l55 281h-158l64 280h149l70 354h-189zM557 561h323l69 354h-324z" />
    <glyph glyph-name="dollar" unicode="$" 
d="M461 -188l0.00488281 322c-36 10.667 -69.5 24.667 -100.5 42s-58.5 38.666 -82.5 63.999h-176v301h342c0 -24 4 -45.833 12 -65.5s19.667 -36.667 35 -51s34.166 -25.5 56.499 -33.5s48.166 -12 77.499 -12c34.667 0 61 7 79 21s27 32.333 27 55
c0 10.667 -3.33301 20.5 -10 29.5s-15.334 17.167 -26.001 24.5s-22.834 13.833 -36.501 19.5s-27.167 10.5 -40.5 14.5l-186 57c-37.333 11.333 -72.5 25.833 -105.5 43.5s-61.833 39.5 -86.5 65.5s-44.167 56.833 -58.5 92.5s-21.5 77.167 -21.5 124.5
c0 46.667 7.33301 88.5 22 125.5s35.334 69.167 62.001 96.5s58.5 49.833 95.5 67.5s77.5 30.834 121.5 39.501v324h332v-341c28 -9.33301 53.667 -20 77 -32s44 -25 62 -39h180v-301h-342c-0.666992 24.667 -4.66699 45.834 -12 63.501s-18 32.834 -32 45.501
s-31 22.667 -51 30s-43 11 -69 11c-32.667 0 -57.834 -6 -75.501 -18s-26.5 -28.667 -26.5 -50c0 -12 3.66699 -22.5 11 -31.5s17.333 -17.333 30 -25s27.667 -14.667 45 -21s35.666 -12.5 54.999 -18.5l178 -57c89.333 -28 155.333 -67.167 198 -117.5
s64 -115.833 64 -196.5c0 -42.667 -6.83301 -82.334 -20.5 -119.001s-33.167 -70 -58.5 -100s-56 -55.833 -92 -77.5s-76.333 -38.834 -121 -51.501v-321h-332z" />
    <glyph glyph-name="percent" unicode="%" horiz-adv-x="1833" 
d="M211 1167c0 50 9.33203 97.3301 27.999 141.997s44.834 83.834 78.501 117.501s73.667 60.334 120 80.001s97.166 29.5 152.499 29.5s106.166 -9.83301 152.499 -29.5s86.333 -46.334 120 -80.001s59.834 -72.834 78.501 -117.501s28 -92 28 -142
c0 -49.333 -9.16699 -96.166 -27.5 -140.499s-44 -83.333 -77 -117s-72.833 -60.5 -119.5 -80.5s-98.334 -30 -155.001 -30c-57.333 0 -109.166 9.83301 -155.499 29.5s-86.166 46.334 -119.499 80.001s-59 72.834 -77 117.501s-27 91.667 -27 141zM589.999 1305
c-19.333 0 -37.5 -3.33203 -54.5 -9.99902s-31.833 -16 -44.5 -28s-22.5 -26.5 -29.5 -43.5s-10.5 -35.833 -10.5 -56.5c0 -18.667 3.5 -36.5 10.5 -53.5s16.833 -31.833 29.5 -44.5s27.5 -22.667 44.5 -30s35.167 -11 54.5 -11s37.5 3.66699 54.5 11
s31.667 17.166 44 29.499s22.166 27 29.499 44s11 35.167 11 54.5c0 20.667 -3.66699 39.5 -11 56.5s-17.166 31.5 -29.499 43.5s-27 21.333 -44 28s-35.167 10 -54.5 10zM1370 1540h266l-1025 -1540h-266zM1024 378.998c0 50 9.33496 97.332 28.002 141.999
s44.834 83.834 78.501 117.501s73.667 60.334 120 80.001s97.166 29.5 152.499 29.5s106.166 -9.83301 152.499 -29.5s86.333 -46.334 120 -80.001s59.834 -72.834 78.501 -117.501s28 -92 28 -142c0 -49.333 -9.16699 -96.333 -27.5 -141s-44 -83.834 -77 -117.501
s-72.833 -60.5 -119.5 -80.5s-98.334 -30 -155.001 -30s-108.334 9.83301 -155.001 29.5s-86.5 46.334 -119.5 80.001s-58.667 72.834 -77 117.501s-27.5 92 -27.5 142zM1403 515.997c-19.333 0 -37.5 -3.33203 -54.5 -9.99902s-31.833 -16 -44.5 -28
s-22.5 -26.333 -29.5 -43s-10.5 -35.334 -10.5 -56.001c0 -19.333 3.5 -37.333 10.5 -54s16.833 -31.334 29.5 -44.001s27.5 -22.667 44.5 -30s35.167 -11 54.5 -11s37.5 3.5 54.5 10.5s31.667 16.833 44 29.5s22.166 27.5 29.499 44.5s11 35.167 11 54.5
c0 20.667 -3.66699 39.334 -11 56.001s-17.166 31 -29.499 43s-27 21.333 -44 28s-35.167 10 -54.5 10z" />
    <glyph glyph-name="ampersand" unicode="&#x26;" horiz-adv-x="1337" 
d="M1196 -49l-200.997 206.001c-54.667 -52 -116.5 -93.5 -185.5 -124.5s-146.167 -46.5 -231.5 -46.5c-68 0 -131.667 12 -191 36s-111 57 -155 99s-78.667 91.667 -104 149s-38 119 -38 185c0 84.667 19.667 159.667 59 225s94 122.666 164 171.999
c0.666992 0 1.66699 0.666992 3 2l-19 20c-41.333 44 -73.166 91.667 -95.499 143s-33.5 109 -33.5 173c0 54.667 11 106.667 33 156s52.5 92.833 91.5 130.5s84.667 67.5 137 89.5s109.166 33 170.499 33c64.667 0 123.334 -11.333 176.001 -34s97.667 -52.834 135 -90.501
s66.166 -81 86.499 -130s30.5 -99.833 30.5 -152.5c0 -37.333 -4.83301 -73.333 -14.5 -108s-23 -67 -40 -97s-36.833 -57.5 -59.5 -82.5s-46.667 -46.5 -72 -64.5l-33 -23.5c-10.667 -7.66699 -21.667 -15.167 -33 -22.5l164 -162c9.33301 30 17.166 58.833 23.499 86.5
s11.5 53.834 15.5 78.501h299c-4.66699 -64.667 -15.834 -130.5 -33.501 -197.5s-41.834 -132.167 -72.501 -195.5l255 -250zM406.003 461.001c0 -22 4.33203 -43.167 12.999 -63.5s20.834 -38.5 36.501 -54.5s34.5 -28.667 56.5 -38s46.667 -14 74 -14
c42 0 79.5 7.16699 112.5 21.5s62.833 33.5 89.5 57.5l-262 268c-18 -11.333 -34.5 -23 -49.5 -35s-27.667 -25 -38 -39s-18.333 -29.5 -24 -46.5s-8.5 -35.833 -8.5 -56.5zM674.002 1063c21.333 15.333 36.499 33.499 45.499 54.499s13.5 45.833 13.5 74.5
c0 18 -3.5 35 -10.5 51s-16.667 30.167 -29 42.5s-26.5 22 -42.5 29s-33 10.5 -51 10.5c-21.333 0 -40.666 -3.33301 -57.999 -10s-32.333 -16 -45 -28s-22.5 -26.167 -29.5 -42.5s-10.5 -33.833 -10.5 -52.5c0 -26.667 4.83301 -52.5 14.5 -77.5s23.167 -45.5 40.5 -61.5
l56 -55l58 33c18 10.667 34 21.334 48 32.001z" />
    <glyph glyph-name="quotesingle" unicode="'" horiz-adv-x="340" 
d="M256 1059h-219v518l287 16z" />
    <glyph glyph-name="parenleft" unicode="(" horiz-adv-x="721" 
d="M510 -467c-65.333 80 -122.835 163.999 -172.502 251.999s-91.5 179 -125.5 273s-59.667 190.333 -77 289s-26 198.667 -26 300c0 205.333 34.333 403.333 103 594s169.334 366.667 302.001 528l246 -172c-51.333 -67.333 -97.166 -138.666 -137.499 -213.999
s-74.5 -153.5 -102.5 -234.5s-49.333 -163.667 -64 -248s-22 -168.833 -22 -253.5c0 -85.333 7.33301 -170.333 22 -255s36 -167.5 64 -248.5s62 -159.5 102 -235.5s85.333 -147.667 136 -215z" />
    <glyph glyph-name="parenright" unicode=")" horiz-adv-x="721" 
d="M6 -295c51.333 66.667 97.168 137.834 137.501 213.501s74.5 154 102.5 235s49.333 163.667 64 248s22 168.833 22 253.5s-7.33301 169.5 -22 254.5s-36 168 -64 249s-62 159.5 -102 235.5s-85.333 148 -136 216l248 159c130.667 -160.667 230.167 -335.5 298.5 -524.5
s102.5 -385.5 102.5 -589.5c0 -204.667 -34.333 -402.334 -103 -593.001s-169.334 -367 -302.001 -529z" />
    <glyph glyph-name="asterisk" unicode="*" horiz-adv-x="1008" 
d="M629 1364l239 78l78 -238l-241 -77l149 -205l-203 -148l-148 206l-147 -206l-202 148l148 205l-241 77l78 238l240 -78v252h250v-252z" />
    <glyph glyph-name="plus" unicode="+" horiz-adv-x="1229" 
d="M102 733h363v363h297v-363h364v-297h-364v-364h-297v364h-363v297z" />
    <glyph glyph-name="comma" unicode="," horiz-adv-x="532" 
d="M205 283l305 -107l-285 -541l-205 78z" />
    <glyph glyph-name="hyphen" unicode="-" horiz-adv-x="770" 
d="M61 449v274h627v-274h-627z" />
    <glyph glyph-name="period" unicode="." horiz-adv-x="529" 
d="M70 162c0 26.667 4.83105 51.667 14.498 75s23.334 44 41.001 62s38.5 32.167 62.5 42.5s49.667 15.5 77 15.5c26 0 50.833 -5.16699 74.5 -15.5s44.334 -24.333 62.001 -42s31.5 -38.5 41.5 -62.5s15 -49 15 -75c0 -26.667 -5.16699 -52 -15.5 -76
s-24.166 -44.667 -41.499 -62s-37.666 -31.166 -60.999 -41.499s-48.333 -15.5 -75 -15.5c-28 0 -53.833 5.16699 -77.5 15.5s-44.334 24.166 -62.001 41.499s-31.334 37.833 -41.001 61.5s-14.5 49.167 -14.5 76.5z" />
    <glyph glyph-name="slash" unicode="/" horiz-adv-x="807" 
d="M633 1556h256l-578 -1556h-262z" />
    <glyph glyph-name="zero" unicode="0" horiz-adv-x="1296" 
d="M672 -14c-106.667 0 -197.333 19.666 -272 58.999s-135.5 93.5 -182.5 162.5s-81.333 150.333 -103 244s-32.5 194.5 -32.5 302.5c0 106.667 10.333 207.167 31 301.5s54.334 177 101.001 248s107.667 127.167 183 168.5s167.666 62 276.999 62
c108 0 199.5 -20.333 274.5 -61s135.833 -96 182.5 -166s80.5 -151.833 101.5 -245.5s31.5 -193.5 31.5 -299.5c0 -107.333 -10.833 -208.166 -32.5 -302.499s-56 -176.5 -103 -246.5s-108.167 -125.333 -183.5 -166s-166.333 -61 -273 -61zM672.001 292.999
c59.333 0 106.499 11.833 141.499 35.5s61.833 56.334 80.5 98.001s30.667 91.167 36 148.5s8 119.666 8 186.999c0 66 -2.66699 127.5 -8 184.5s-17.166 106.667 -35.499 149s-45 75.5 -80 99.5s-81.833 36 -140.5 36c-59.333 0 -106.666 -12 -141.999 -36
s-62.333 -57.167 -81 -99.5s-30.834 -92 -36.501 -149s-8.5 -118.5 -8.5 -184.5c0 -67.333 2.83301 -129.666 8.5 -186.999s17.667 -106.833 36 -148.5s45 -74.334 80 -98.001s82.167 -35.5 141.5 -35.5z" />
    <glyph glyph-name="one" unicode="1" horiz-adv-x="815" 
d="M115 274h159v791l-233 -139v348l418 246l145 -2v-1244h160v-274h-649v274z" />
    <glyph glyph-name="two" unicode="2" horiz-adv-x="1178" 
d="M127 260l523.997 556.999c45.333 44 80.333 88 105 132s37 88.667 37 134c0 19.333 -4 38.5 -12 57.5s-19.5 36 -34.5 51s-33.333 27 -55 36s-46.167 13.5 -73.5 13.5c-32.667 0 -61.167 -5.16699 -85.5 -15.5s-44.666 -24.5 -60.999 -42.5s-28.833 -39 -37.5 -63
s-13.334 -49.333 -14.001 -76h-301c0 78.667 13 148.834 39 210.501s61.833 113.667 107.5 156s99.167 74.5 160.5 96.5s127 33 197 33c66 0 128.833 -10 188.5 -30s112.334 -49.333 158.001 -88s81.834 -86.334 108.501 -143.001s40 -122 40 -196
c0 -59.333 -12.167 -114.166 -36.5 -164.499s-57.166 -98.5 -98.499 -144.5l-432 -467h565v-307h-989v260z" />
    <glyph glyph-name="three" unicode="3" horiz-adv-x="1087" 
d="M727 1083c0 20 -4.50098 39.999 -13.501 59.999s-22 38 -39 54s-37.333 29 -61 39s-49.834 15 -78.501 15c-24.667 0 -48.167 -4.16699 -70.5 -12.5s-42 -19.5 -59 -33.5s-30.5 -30.167 -40.5 -48.5s-15 -49.5 -15 -93.5l-311 2c0.666992 64.667 13 126.334 37 185.001
s57.5 110.334 100.5 155.001s94.833 80 155.5 106s128.334 39 203.001 39c70.667 0 136.667 -12.167 198 -36.5s114.666 -57.166 159.999 -98.499s80.833 -89 106.5 -143s38.5 -110.667 38.5 -170c0 -64.667 -13.333 -123.5 -40 -176.5s-63 -95.833 -109 -128.5
c24 -13.333 46.333 -31 67 -53s38.834 -47.333 54.501 -76s28 -60 37 -94s13.5 -69.667 13.5 -107c0 -65.333 -13.333 -127.333 -40 -186s-63.5 -110.167 -110.5 -154.5s-102.5 -79.5 -166.5 -105.5s-133 -39 -207 -39c-70 0 -135.167 11 -195.5 33
s-113.166 52.5 -158.499 91.5s-81.833 85 -109.5 138s-44 97.167 -49 132.5s-7.83301 72 -8.5 110h314c4 -70 24.167 -121.5 60.5 -154.5s86.5 -49.5 150.5 -49.5c28.667 0 55.5 4.83301 80.5 14.5s46.833 22.667 65.5 39s33.5 35.5 44.5 57.5s16.5 45.667 16.5 71
c0 26.667 -4.83301 51.5 -14.5 74.5s-23.5 42.667 -41.5 59s-40 29.166 -66 38.499s-55 14 -87 14h-140v273h142c29.333 0 55.5 4 78.5 12s42.5 19 58.5 33s28.167 30.667 36.5 50s12.5 40.666 12.5 63.999z" />
    <glyph glyph-name="four" unicode="4" horiz-adv-x="1231" 
d="M10 670l539 846h334l-531 -848h320v293l313 4v-297h211v-254h-211v-140h193v-274h-650v274h144v140h-662v256z" />
    <glyph glyph-name="five" unicode="5" horiz-adv-x="1206" 
d="M436 926c32 12 66.5 22.1641 103.5 30.4971s76.833 12.5 119.5 12.5c68 0 132.5 -10.5 193.5 -31.5s114.667 -52 161 -93s83.166 -91.5 110.499 -151.5s41 -129.333 41 -208c0 -84.667 -15 -159.167 -45 -223.5s-69.667 -118.166 -119 -161.499s-105.5 -76 -168.5 -98
s-127.5 -33 -193.5 -33c-65.333 0 -127.166 8.5 -185.499 25.5s-110.833 42.5 -157.5 76.5s-86.167 76.5 -118.5 127.5s-54.5 110.5 -66.5 178.5l309 84c4 -31.333 12.333 -59.333 25 -84s28.5 -45.667 47.5 -63s41 -30.666 66 -39.999s51.833 -14 80.5 -14
c32 0 61.333 6 88 18s49.334 28.5 68.001 49.5s33.167 45.5 43.5 73.5s15.5 58.333 15.5 91c0 27.333 -5.33301 54 -16 80s-26 49 -46 69s-44 36 -72 48s-59 18 -93 18c-43.333 0 -80.833 -4.16699 -112.5 -12.5s-63.834 -20.166 -96.501 -35.499l-271 50v807h963v-306h-674
v-284z" />
    <glyph glyph-name="six" unicode="6" horiz-adv-x="1163" 
d="M913 1518l-308.999 -540.997c18 1.33301 35.5 1.16602 52.5 -0.500977s33.833 -4.16699 50.5 -7.5c56.667 -10.667 109.667 -30.167 159 -58.5s92.166 -63.333 128.499 -105s65 -88.834 86 -141.501s31.5 -108.667 31.5 -168c0 -72.667 -13.833 -140 -41.5 -202
s-65.5 -115.667 -113.5 -161s-103.833 -80.833 -167.5 -106.5s-131.5 -38.5 -203.5 -38.5c-70.667 0 -137.5 12.833 -200.5 38.5s-118.167 60.667 -165.5 105s-84.833 96.833 -112.5 157.5s-41.5 126 -41.5 196c0 33.333 3.33301 65.166 10 95.499s15.667 60 27 89
s24.333 57.5 39 85.5l46 85l375 678h350zM582.001 694.003c-40.667 0 -77.5 -7.50195 -110.5 -22.502s-60.167 -36.5 -81.5 -64.5c-8.66699 -16.667 -15.834 -34.667 -21.501 -54s-8.5 -40.666 -8.5 -63.999s4.5 -47.166 13.5 -71.499s22.833 -46.666 41.5 -66.999
s42.334 -37 71.001 -50s62.667 -19.5 102 -19.5c26.667 0 53.667 4.66699 81 14s51.666 22.666 72.999 39.999s38.833 38.833 52.5 64.5s20.5 54.834 20.5 87.501c0 31.333 -6.16699 59.666 -18.5 84.999s-29.166 47 -50.499 65s-46 32 -74 42s-58 15 -90 15z" />
    <glyph glyph-name="seven" unicode="7" horiz-adv-x="1190" 
d="M229 274h106l105 240l107.5 241l105 232.5l98.5 216.5h-423v-172h-287v484h1108v-226l-240.5 -499.5l-237.5 -516.5h99v-274h-541v274z" />
    <glyph glyph-name="eight" unicode="8" horiz-adv-x="1180" 
d="M639 1544c68 0 132 -12.002 192 -36.002s112.333 -56.333 157 -97s80 -88 106 -142s39 -111 39 -171c0 -58.667 -13.5 -114 -40.5 -166s-63.5 -97.667 -109.5 -137c56 -40 100.333 -88.5 133 -145.5s49 -119.833 49 -188.5c0 -65.333 -13.5 -127.333 -40.5 -186
s-64 -110.5 -111 -155.5s-102.667 -80.667 -167 -107s-133.5 -39.5 -207.5 -39.5c-49.333 0 -96.666 6.16699 -141.999 18.5s-87.5 29.5 -126.5 51.5s-74.333 48.333 -106 79s-58.667 63.834 -81 99.501s-39.666 73.5 -51.999 113.5s-18.5 80.667 -18.5 122
c0 70.667 16.667 135.167 50 193.5s78.333 107.5 135 147.5c-46 38.667 -82.167 83.334 -108.5 134.001s-39.5 104 -39.5 160c0 62 12.833 120.333 38.5 175s60.667 102.5 105 143.5s96.166 73.5 155.499 97.5s122.666 36 189.999 36zM403 464.998
c0 -27.333 6 -53.333 18 -78s28.667 -46.167 50 -64.5s46.333 -33 75 -44s59.667 -16.5 93 -16.5c32.667 0 63.167 5.5 91.5 16.5s53 25.667 74 44s37.5 39.833 49.5 64.5s18 50.667 18 78c0 26.667 -6 51.834 -18 75.501s-28.5 44.5 -49.5 62.5s-45.667 32.333 -74 43
s-58.833 16 -91.5 16c-33.333 0 -64.333 -5.33301 -93 -16s-53.667 -25 -75 -43s-38 -38.833 -50 -62.5s-18 -48.834 -18 -75.501zM440 1081c0 -22.667 5 -44.167 15 -64.5s24 -38.166 42 -53.499s39.167 -27.5 63.5 -36.5s50.5 -13.5 78.5 -13.5s54.167 4.5 78.5 13.5
s45.5 21.167 63.5 36.5s32.333 33.166 43 53.499s16 41.833 16 64.5c0 23.333 -5.33301 45.5 -16 66.5s-25 39.5 -43 55.5s-39.167 28.667 -63.5 38s-50.5 14 -78.5 14s-54.167 -4.66699 -78.5 -14s-45.5 -22 -63.5 -38s-32 -34.5 -42 -55.5s-15 -43.167 -15 -66.5z" />
    <glyph glyph-name="nine" unicode="9" horiz-adv-x="1151" 
d="M305 -2l307.001 540c-18 -1.33301 -35.333 -1 -52 1s-32.667 4.66699 -48 8c-56.667 10.667 -109.667 30.167 -159 58.5s-92.333 63.333 -129 105s-65.5 88.834 -86.5 141.501s-31.5 108.667 -31.5 168c0 72.667 13.833 140 41.5 202s65.167 115.667 112.5 161
s103 80.833 167 106.5s132 38.5 204 38.5c70.667 0 137.667 -12.833 201 -38.5s118.833 -60.834 166.5 -105.501s85.334 -97.334 113.001 -158.001s41.5 -126 41.5 -196c0 -33.333 -3.33301 -65.166 -10 -95.499s-15.834 -59.833 -27.501 -88.5s-24.834 -57 -39.501 -85
l-46 -85l-375 -678h-350zM637.001 821c38.667 0 74 6.83301 106 20.5s58.667 34.167 80 61.5c9.33301 17.333 17.166 36.166 23.499 56.499s9.5 42.5 9.5 66.5c0 22.667 -4.5 46.334 -13.5 71.001s-22.667 47.334 -41 68.001s-41.666 37.5 -69.999 50.5
s-61.833 19.5 -100.5 19.5c-28 0 -55.5 -4.66699 -82.5 -14s-51.333 -22.833 -73 -40.5s-39.167 -39.334 -52.5 -65.001s-20 -54.834 -20 -87.501c0 -31.333 6.16699 -59.666 18.5 -84.999s29 -47 50 -65s45.833 -32 74.5 -42s59 -15 91 -15z" />
    <glyph glyph-name="colon" unicode=":" horiz-adv-x="539" 
d="M72 907c0 24.667 4.5 47.834 13.5 69.501s21.5 40.5 37.5 56.5s34.833 28.667 56.5 38s45.167 14 70.5 14c24 0 46.667 -4.66699 68 -14s40 -22 56 -38s28.667 -34.833 38 -56.5s14 -44.834 14 -69.501s-4.66699 -47.834 -14 -69.501s-22 -40.5 -38 -56.5
s-34.667 -28.667 -56 -38s-44 -14 -68 -14c-25.333 0 -48.833 4.66699 -70.5 14s-40.5 22 -56.5 38s-28.5 34.833 -37.5 56.5s-13.5 44.834 -13.5 69.501zM72 145c0 24.667 4.5 47.834 13.5 69.501s21.5 40.667 37.5 57s34.833 29.166 56.5 38.499s45.167 14 70.5 14
c24 0 46.667 -4.66699 68 -14s40 -22.166 56 -38.499s28.667 -35.333 38 -57s14 -44.834 14 -69.501s-4.66699 -47.834 -14 -69.501s-22 -40.5 -38 -56.5s-34.667 -28.667 -56 -38s-44 -14 -68 -14c-25.333 0 -48.833 4.66699 -70.5 14s-40.5 22 -56.5 38
s-28.5 34.833 -37.5 56.5s-13.5 44.834 -13.5 69.501z" />
    <glyph glyph-name="semicolon" unicode=";" horiz-adv-x="539" 
d="M72 907c0 24.667 4.5 47.834 13.5 69.501s21.5 40.5 37.5 56.5s34.833 28.667 56.5 38s45.167 14 70.5 14c24 0 46.667 -4.66699 68 -14s40 -22 56 -38s28.667 -34.833 38 -56.5s14 -44.834 14 -69.501s-4.66699 -47.834 -14 -69.501s-22 -40.5 -38 -56.5
s-34.667 -28.667 -56 -38s-44 -14 -68 -14c-25.333 0 -48.833 4.66699 -70.5 14s-40.5 22 -56.5 38s-28.5 34.833 -37.5 56.5s-13.5 44.834 -13.5 69.501zM123 283l305 -107l-285 -541l-204 78z" />
    <glyph glyph-name="less" unicode="&#x3c;" horiz-adv-x="868" 
d="M31 674l755 274v-256l-448 -134l448 -144v-250l-755 287v223z" />
    <glyph glyph-name="equal" unicode="=" horiz-adv-x="995" 
d="M61 567h873v-286h-873v286zM61 997h873v-286h-873v286z" />
    <glyph glyph-name="greater" unicode="&#x3e;" horiz-adv-x="827" 
d="M797 451l-756 -287v250l448 144l-448 134v256l756 -274v-223z" />
    <glyph glyph-name="question" unicode="?" horiz-adv-x="1192" 
d="M301 145c0 24.667 4.5 47.834 13.5 69.501s21.5 40.667 37.5 57s34.833 29.166 56.5 38.499s45.167 14 70.5 14c24 0 46.667 -4.66699 68 -14s40 -22.166 56 -38.499s28.667 -35.333 38 -57s14 -44.834 14 -69.501s-4.66699 -47.834 -14 -69.501s-22 -40.5 -38 -56.5
s-34.667 -28.667 -56 -38s-44 -14 -68 -14c-25.333 0 -48.833 4.66699 -70.5 14s-40.5 22 -56.5 38s-28.5 34.833 -37.5 56.5s-13.5 44.834 -13.5 69.501zM324 391c0 46.667 0.671875 87.667 2.00488 123s4.16602 66.833 8.49902 94.5s10.666 52.334 18.999 74.001
s19.333 41.834 33 60.501s30.5 36.834 50.5 54.501s44.333 36.5 73 56.5c30.667 25.333 56 48.5 76 69.5s35.667 41.833 47 62.5s19.333 42 24 64s7 46.667 7 74c0 39.333 -9.83301 71.333 -29.5 96s-46.167 37 -79.5 37c-20.667 0 -39.834 -2.33301 -57.501 -7
s-33.167 -13.334 -46.5 -26.001s-23.833 -30 -31.5 -52s-11.5 -50.333 -11.5 -85l-318 31c1.33301 73.333 14.166 137.166 38.499 191.499s57.666 99.5 99.999 135.5s92.333 62.833 150 80.5s120.5 26.5 188.5 26.5c63.333 0 122.666 -9.33301 177.999 -28
s103.5 -46.334 144.5 -83.001s73.333 -81.667 97 -135s35.5 -114.666 35.5 -183.999c0 -72.667 -16.667 -139.334 -50 -200.001s-84.333 -118 -153 -172c-35.333 -25.333 -64.666 -49 -87.999 -71s-42 -46 -56 -72s-23.833 -56 -29.5 -90s-8.5 -76 -8.5 -126h-313z" />
    <glyph glyph-name="at" unicode="@" horiz-adv-x="2267" 
d="M1608 956l-0.000976562 -647.003c0 -28.667 5.5 -52.167 16.5 -70.5s27.833 -27.5 50.5 -27.5c32.667 0 59.667 10 81 30s38.166 46 50.499 78s20.833 67.5 25.5 106.5s7 77.5 7 115.5c0 57.333 -8.16699 113 -24.5 167s-39.5 104.833 -69.5 152.5
s-66 91.334 -108 131.001s-88.667 73.834 -140 102.501s-106.666 50.834 -165.999 66.501s-121.333 23.5 -186 23.5c-64 0 -125.333 -8.16699 -184 -24.5s-113.667 -39.5 -165 -69.5s-97.833 -66.167 -139.5 -108.5s-77.5 -89 -107.5 -140s-53.167 -105.833 -69.5 -164.5
s-24.5 -119.667 -24.5 -183c0 -96 18 -186 54 -270s85.167 -157.333 147.5 -220s135.333 -112.167 219 -148.5s173.5 -54.5 269.5 -54.5c66 0 131.667 10.5 197 31.5s129.333 50.167 192 87.5l137 -227c-82.667 -50 -168.667 -88.5 -258 -115.5
s-178.666 -40.5 -267.999 -40.5c-88 0 -172.833 11.333 -254.5 34s-158 54.667 -229 96s-135.5 91.166 -193.5 149.499s-107.833 122.833 -149.5 193.5s-73.834 146.834 -96.501 228.501s-34 166.834 -34 255.501c0 88 11.333 172.667 34 254s54.834 157.333 96.501 228
s91.5 135 149.5 193s122.5 107.667 193.5 149s147.333 73.333 229 96s166.5 34 254.5 34c88.667 0 174 -11 256 -33s158.5 -52.833 229.5 -92.5s135.5 -87.334 193.5 -143.001s107.667 -117 149 -184s73.333 -138.667 96 -215s34 -155.5 34 -237.5
c0 -68 -10 -135.333 -30 -202s-49.5 -126.667 -88.5 -180s-87.333 -96.5 -145 -129.5s-124.167 -49.5 -199.5 -49.5c-53.333 0 -100 9.33301 -140 28s-73.667 45 -101 79c-38 -32.667 -81 -58.334 -129 -77.001s-94.667 -28 -140 -28c-73.333 0 -141 13.333 -203 40
s-115.5 62.667 -160.5 108s-80.167 97.833 -105.5 157.5s-38 122.834 -38 189.501c0 64.667 12 126.667 36 186s57.5 111.5 100.5 156.5s94.333 80.833 154 107.5s125.167 40 196.5 40c39.333 0 76.333 -4 111 -12s68 -18.667 100 -32v31h287zM1130 275.997
c40 0 76.8311 10.501 110.498 31.501s60.5 50.5 80.5 88.5v159c-8.66699 19.333 -19.5 37 -32.5 53s-27.667 29.833 -44 41.5s-34 20.667 -53 27s-38.5 9.5 -58.5 9.5c-28 0 -54.667 -5.33301 -80 -16s-47.333 -25.334 -66 -44.001s-33.5 -40.667 -44.5 -66
s-16.5 -52.333 -16.5 -81c0 -30 5.33301 -57.5 16 -82.5s25.334 -46.5 44.001 -64.5s40.334 -31.833 65.001 -41.5s51 -14.5 79 -14.5z" />
    <glyph glyph-name="A" unicode="A" horiz-adv-x="1491" 
d="M893 274h151l-68 218h-466l-68 -218h160v-274h-575v274h113l413 1242h401l404 -1242h110v-274h-575v274zM589 748h306l-154 493z" />
    <glyph glyph-name="B" unicode="B" horiz-adv-x="1386" 
d="M113 274l155 0.00195312v967h-155v277l739 -2c68.667 0 131.5 -12.167 188.5 -36.5s106.167 -57.333 147.5 -99s73.5 -90.334 96.5 -146.001s34.5 -114.834 34.5 -177.501c0 -73.333 -12.833 -134 -38.5 -182s-62.167 -86.667 -109.5 -116
c50 -32 89.5 -71.5 118.5 -118.5s43.5 -104.167 43.5 -171.5c0 -68.667 -11.833 -131.667 -35.5 -189s-56 -106.833 -97 -148.5s-89.5 -74 -145.5 -97s-116.333 -34.5 -181 -34.5h-761v274zM600 627.002l0.000976562 -353h252c19.333 0 37.5 5 54.5 15
s31.667 23.167 44 39.5s22.166 35.333 29.499 57s11 44.167 11 67.5c0 24.667 -3.66699 47.5 -11 68.5s-17.333 39.333 -30 55s-27.5 28 -44.5 37s-34.833 13.5 -53.5 13.5h-252zM600.001 1241v-340.003h238c18.667 0 36.334 4.66699 53.001 14s31.167 21.833 43.5 37.5
s22.166 33.334 29.499 53.001s11 40.167 11 61.5c0 20.667 -3.66699 41.334 -11 62.001s-17.166 39.334 -29.499 56.001s-26.833 30.167 -43.5 40.5s-34.334 15.5 -53.001 15.5h-238z" />
    <glyph glyph-name="C" unicode="C" horiz-adv-x="1554" 
d="M1106 1055c-37.333 53.333 -71.0039 91.168 -101.004 113.501s-62.333 38.333 -97 48s-71 14.5 -109 14.5c-56 0 -108 -12.5 -156 -37.5s-89.5 -59 -124.5 -102s-62.5 -93 -82.5 -150s-30 -117.5 -30 -181.5c0 -64.667 9.83301 -125.5 29.5 -182.5
s46.834 -106.833 81.501 -149.5s76 -76.5 124 -101.5s100.667 -37.5 158 -37.5c40 0 77.333 6.5 112 19.5s66.167 30.167 94.5 51.5s53.166 45.833 74.499 73.5s38 56.5 50 86.5l322 -90c-20.667 -65.333 -51 -125.833 -91 -181.5s-88.167 -103.834 -144.5 -144.501
s-119.666 -72.667 -189.999 -96s-146.166 -35 -227.499 -35c-68.667 0 -134.334 9.33301 -197.001 28s-121.167 45 -175.5 79s-103.666 75 -147.999 123s-82.166 101.167 -113.499 159.5s-55.666 121 -72.999 188s-26 136.833 -26 209.5c0 108.667 19 210.5 57 305.5
s90 178 156 249s143.5 127 232.5 168s184.833 61.5 287.5 61.5c82 0 151 -10.167 207 -30.5s117.667 -60.5 185 -120.5h224v-338h-309z" />
    <glyph glyph-name="D" unicode="D" horiz-adv-x="1468" 
d="M82 1516h582c69.333 0 135.833 -9 199.5 -27s123 -43.333 178 -76s105 -71.834 150 -117.501s83.5 -96.5 115.5 -152.5s56.667 -116.333 74 -181s26 -132 26 -202s-8.66699 -137.333 -26 -202s-42 -125.167 -74 -181.5s-70.5 -107.666 -115.5 -153.999s-95 -86 -150 -119
s-114.333 -58.5 -178 -76.5s-130.167 -27 -199.5 -27h-582v274h121v967h-121v275zM535 1241v-967h127c54 0 105 12.667 153 38s89.667 59.833 125 103.5s63.333 95 84 154s31 122.5 31 190.5c0 67.333 -10.333 130.333 -31 189s-48.667 109.667 -84 153s-77 77.333 -125 102
s-99 37 -153 37h-127z" />
    <glyph glyph-name="E" unicode="E" horiz-adv-x="1380" 
d="M113 1516h1206v-517h-326v215h-389v-299h301v-290h-301v-351h389v269h326v-543h-1206v274h159v940h-159v302z" />
    <glyph glyph-name="F" unicode="F" horiz-adv-x="1286" 
d="M113 1516h1173v-517h-325v213h-359v-319h311v-291h-311v-328h160v-274h-649v274h157v938h-157v304z" />
    <glyph glyph-name="G" unicode="G" horiz-adv-x="1636" 
d="M1212 0l-0.000976562 260.003c-41.333 -72.667 -81.666 -126 -120.999 -160s-83.833 -61.333 -133.5 -82s-116.167 -30.667 -199.5 -30c-41.333 0.666992 -82.666 5.5 -123.999 14.5s-81.333 21.667 -120 38s-76.5 36 -113.5 59s-70.5 49.5 -100.5 79.5
c-74 74.667 -131.5 161.167 -172.5 259.5s-61.5 205.5 -61.5 321.5c0 71.333 8.66699 140.333 26 207s41.666 129 72.999 187s69.166 110.833 113.499 158.5s93.666 88.5 147.999 122.5s112.833 60.333 175.5 79s128.334 28 197.001 28c78.667 0 147 -10.5 205 -31.5
s120.333 -60.167 187 -117.5h224v-338h-309c-30.667 47.333 -59.5 81.666 -86.5 102.999s-56.333 39 -88 53s-75.834 21 -132.501 21c-56 0 -108 -12.667 -156 -38s-89.5 -59.5 -124.5 -102.5s-62.5 -93.667 -82.5 -152s-30 -118.166 -30 -179.499
c0 -60.667 9 -118.334 27 -173.001s45.333 -103.834 82 -147.501s79.334 -77.167 128.001 -100.5s100.667 -35 156 -35c70.667 0 132.334 20.667 185.001 62s90.667 97.666 114 168.999h-289v274h702v-809h-299z" />
    <glyph glyph-name="H" unicode="H" horiz-adv-x="1890" 
d="M1128 1516h650v-275h-160v-967h160v-274h-650v274h158v388h-684v-388h160v-274h-649v274h157v967h-157v275h649v-275h-160v-315h684v315h-158v275z" />
    <glyph glyph-name="I" unicode="I" horiz-adv-x="810" 
d="M113 1516h649v-274h-160v-968h160v-274h-649v274h157v968h-157v274z" />
    <glyph glyph-name="J" unicode="J" horiz-adv-x="686" 
d="M82 1516h573v-304h-106v-1040c-14.667 -54 -36 -103.5 -64 -148.5s-55.5 -85.833 -82.5 -122.5s-64.833 -83 -113.5 -139l-279 15c39.333 60 70.166 109.5 92.499 148.5s44.833 82 67.5 129s40.334 97.167 53.001 150.5v1007h-141v304z" />
    <glyph glyph-name="K" unicode="K" horiz-adv-x="1655" 
d="M113 1516h649v-275h-160v-441l485 423v293h517v-295h-113l-505 -434l484 -490h123v-297h-503v297l-488 488v-511h160v-274h-649v274h157v967h-157v275z" />
    <glyph glyph-name="L" unicode="L" horiz-adv-x="1346" 
d="M113 1516h649.001v-275h-160v-967h330c8.66699 0 17.167 2.5 25.5 7.5s15.666 11.5 21.999 19.5s11.5 16.667 15.5 26s6 18.333 6 27v203h324v-557h-1212v274h157v967h-157v275z" />
    <glyph glyph-name="M" unicode="M" horiz-adv-x="2345" 
d="M113 274h141v967h-141v275h624l447 -1094l415 1094h633v-275h-141v-967h139v-274h-567v274h104v872l-454 -1128h-281l-462 1098v-842h113v-274h-570v274z" />
    <glyph glyph-name="N" unicode="N" horiz-adv-x="1698" 
d="M1071 1516h576v-275h-123v-1241h-332l-631 980v-706h127v-274h-575v274h125v967h-123v275h458l627 -993v718h-129v275z" />
    <glyph glyph-name="O" unicode="O" horiz-adv-x="1620" 
d="M799 -27c-68.667 0 -134.334 9.33203 -197.001 27.999s-121.167 45 -175.5 79s-103.666 74.833 -147.999 122.5s-82.166 100.667 -113.499 159s-55.666 120.833 -72.999 187.5s-26 136.334 -26 209.001s8.66699 142.5 26 209.5s41.666 129.667 72.999 188
s69.166 111.333 113.499 159s93.666 88.5 147.999 122.5s112.833 60.333 175.5 79s128.334 28 197.001 28s134.5 -9.33301 197.5 -28s121.667 -45 176 -79s103.666 -74.833 147.999 -122.5s82.333 -100.667 114 -159s56.167 -121 73.5 -188s26 -136.833 26 -209.5
c0 -72 -8.66699 -141.5 -26 -208.5s-41.833 -129.667 -73.5 -188s-69.667 -111.333 -114 -159s-93.666 -88.5 -147.999 -122.5s-113 -60.333 -176 -79s-128.833 -28 -197.5 -28zM799 286.999c58 0 111.167 12.5 159.5 37.5s89.833 59 124.5 102s61.5 93 80.5 150
s28.5 117.5 28.5 181.5c0 64.667 -9.66699 125.667 -29 183s-46.5 107.5 -81.5 150.5s-76.5 77 -124.5 102s-100.667 37.5 -158 37.5s-110 -12.5 -158 -37.5s-89.333 -59 -124 -102s-61.834 -93.167 -81.501 -150.5s-29.5 -118.333 -29.5 -183
c0 -64 9.83301 -124.5 29.5 -181.5s46.834 -107 81.501 -150s76 -77 124 -102s100.667 -37.5 158 -37.5z" />
    <glyph glyph-name="P" unicode="P" horiz-adv-x="1400" 
d="M113 1516l700.001 -0.000976562c78 0 149.667 -12.167 215 -36.5s121.666 -57.166 168.999 -98.499s84.333 -89 111 -143s40 -110.333 40 -169c0 -70.667 -10.5 -136.834 -31.5 -198.501s-53.5 -115.167 -97.5 -160.5s-99.667 -81.166 -167 -107.499
s-147 -39.5 -239 -39.5h-211v-289h139v-274h-628v274h157v967h-157v275zM602.001 1241v-407.001h137c76 0 136.333 16 181 48s67 82.667 67 152c0 64.667 -21 115.334 -63 152.001s-103.667 55 -185 55h-137z" />
    <glyph glyph-name="Q" unicode="Q" horiz-adv-x="1634" 
d="M659 -12c-85.333 17.333 -164.162 49.1699 -236.495 95.5029s-135 103.5 -188 171.5s-94.333 144.833 -124 230.5s-44.5 176.5 -44.5 272.5c0 72.667 8.66699 142.5 26 209.5s41.666 129.667 72.999 188s69.166 111.333 113.499 159s93.666 88.5 147.999 122.5
s112.833 60.333 175.5 79s128.334 28 197.001 28s134.5 -9.33301 197.5 -28s121.667 -45 176 -79s103.666 -74.833 147.999 -122.5s82.333 -100.667 114 -159s56.167 -121 73.5 -188s26 -136.833 26 -209.5c0 -97.333 -15.333 -189.333 -46 -276
s-73.167 -164.334 -127.5 -233.001s-118.833 -126 -193.5 -172s-155.667 -76.667 -243 -92c20.667 -8.66699 41.167 -18.167 61.5 -28.5s40.833 -20 61.5 -29s41.167 -16.667 61.5 -23s41.166 -9.83301 62.499 -10.5c20.667 0 40.834 2.66699 60.501 8
s37.5 13.666 53.5 24.999s29.833 26 41.5 44s19.5 40 23.5 66l223 -111c-6 -48.667 -19.833 -92.667 -41.5 -132s-49.5 -73 -83.5 -101s-72.667 -49.667 -116 -65s-89.333 -23 -138 -23c-39.333 0 -78.833 7.5 -118.5 22.5s-78 31.333 -115 49l-104.5 49
c-32.667 15 -61.334 22.5 -86.001 22.5c-10.667 0 -20.167 0.166992 -28.5 0.5s-16.5 0.333008 -24.5 0s-16.833 -1.33301 -26.5 -3s-20.834 -4.83398 -33.501 -9.50098zM799.004 287.004c58 0 111.167 12.5 159.5 37.5s89.833 59 124.5 102s61.5 93 80.5 150
s28.5 117.5 28.5 181.5c0 64.667 -9.66699 125.667 -29 183s-46.5 107.5 -81.5 150.5s-76.5 77 -124.5 102s-100.667 37.5 -158 37.5s-110 -12.5 -158 -37.5s-89.333 -59 -124 -102s-61.834 -93.167 -81.501 -150.5s-29.5 -118.333 -29.5 -183
c0 -64 9.83301 -124.5 29.5 -181.5s46.834 -107 81.501 -150s76 -77 124 -102s100.667 -37.5 158 -37.5z" />
    <glyph glyph-name="R" unicode="R" horiz-adv-x="1530" 
d="M113 1516l802.002 0.000976562c78 0 147.667 -11.667 209 -35s113 -54.5 155 -93.5s74.167 -84.333 96.5 -136s33.5 -105.5 33.5 -161.5c0 -51.333 -5.5 -96.333 -16.5 -135s-27 -73 -48 -103s-46.833 -56.5 -77.5 -79.5s-65.667 -43.833 -105 -62.5
c34 -17.333 64 -43.833 90 -79.5s45.667 -81.834 59 -138.501l51 -197h125l2 -295h-440l-60 360c-6 42.667 -15.167 79.5 -27.5 110.5s-28.833 56.333 -49.5 76s-45.834 34.167 -75.501 43.5s-64.834 14 -105.501 14h-129v-330h139v-274h-628v274h157v967h-157v275z
M602.002 1241l-0.000976562 -367.001h199c38 0 72.167 3.5 102.5 10.5s56.333 18 78 33s38.334 33.833 50.001 56.5s17.5 49.667 17.5 81c0 58.667 -21 104.334 -63 137.001s-103.667 49 -185 49h-199z" />
    <glyph glyph-name="S" unicode="S" 
d="M842 1089c-3.33301 23.333 -11.499 45.3311 -24.499 65.998s-29.667 38.5 -50 53.5s-43.333 26.833 -69 35.5s-52.5 13 -80.5 13c-25.333 0 -49 -2.66699 -71 -8s-41.167 -13.5 -57.5 -24.5s-29.333 -25.167 -39 -42.5s-14.5 -38 -14.5 -62c0 -30 6.5 -53.833 19.5 -71.5
s29.667 -32.167 50 -43.5s42.833 -20.333 67.5 -27s48.667 -14 72 -22l275 -92c38 -13.333 73.667 -31.666 107 -54.999s62.166 -51.666 86.499 -84.999s43.5 -71.666 57.5 -114.999s21 -92 21 -146c0 -73.333 -13.5 -140.333 -40.5 -201s-64.833 -112.667 -113.5 -156
s-107 -77 -175 -101s-143.333 -36 -226 -36c-58 0 -112.833 6.5 -164.5 19.5s-98.834 31.833 -141.501 56.5s-80 54.167 -112 88.5s-57 73.166 -75 116.499h-103v301h362v-62c0 -30 4.83301 -57.667 14.5 -83s24.167 -47.333 43.5 -66s43.666 -33.167 72.999 -43.5
s63.666 -15.5 102.999 -15.5c60 0 105.667 13.833 137 41.5s47 66.167 47 115.5c0 25.333 -5.5 46.5 -16.5 63.5s-25.167 31.333 -42.5 43s-36.666 21.5 -57.999 29.5s-42.333 15.333 -63 22l-229 74c-43.333 13.333 -85.166 32 -125.499 56s-76 54 -107 90
s-55.667 78.167 -74 126.5s-27.5 103.5 -27.5 165.5c0 72 13.333 136.167 40 192.5s64 103.833 112 142.5s105 68 171 88s138.333 30 217 30c62 0 119.333 -7.16699 172 -21.5s99.834 -33.5 141.501 -57.5s77 -51.5 106 -82.5s51.167 -63.167 66.5 -96.5h100v-302h-362v88z
" />
    <glyph glyph-name="T" unicode="T" horiz-adv-x="1430" 
d="M373 274h157v977h-184v-196h-326v461h1379v-461h-328v196h-209v-977h160v-274h-649v274z" />
    <glyph glyph-name="U" unicode="U" horiz-adv-x="1561" 
d="M51 1516h608.002v-275h-139v-629c0 -57.333 6.5 -106 19.5 -146s31.167 -72.667 54.5 -98s51 -43.833 83 -55.5s67 -17.5 105 -17.5c39.333 0 75.166 5 107.499 15s60 27.167 83 51.5s40.667 56.833 53 97.5s18.5 91.667 18.5 153v629h-161v275h608v-275h-121v-590
c0 -106.667 -15.333 -201.5 -46 -284.5s-72.834 -153.167 -126.501 -210.5s-116.667 -101 -189 -131s-149.833 -45 -232.5 -45c-82 0 -158.667 14.833 -230 44.5s-133.5 72.667 -186.5 129s-94.833 124.833 -125.5 205.5s-46 172 -46 274v608h-137v275z" />
    <glyph glyph-name="V" unicode="V" horiz-adv-x="1530" 
d="M860 1516h649v-275h-135l-405 -1241h-410l-393 1241h-146v275h650v-275h-162l264 -860l263 860h-175v275z" />
    <glyph glyph-name="W" unicode="W" horiz-adv-x="2357" 
d="M1688 1516h649v-275h-137l-349 -1241h-432l-229 946l-234 -946h-428l-355 1241h-153v275h650v-275h-158l223 -817l269 1089h372l264 -1089l224 817h-176v275z" />
    <glyph glyph-name="X" unicode="X" horiz-adv-x="1577" 
d="M858 1516h643v-275h-52l-459 -487l458 -480h49v-274h-643v274h153l-234 248l-233 -248h136v-274h-643v274h69l452 480l-463 487h-54v275h643v-275h-153l244 -257l242 257h-155v275z" />
    <glyph glyph-name="Y" unicode="Y" horiz-adv-x="1536" 
d="M47 1516h649v-275h-127l203 -348l215 348h-145v275h649v-275h-112l-451 -612v-355h184v-274h-676v274h168v359l-424 608h-133v275z" />
    <glyph glyph-name="Z" unicode="Z" horiz-adv-x="1290" 
d="M1214 1202l-755 -905h428v235h325v-532h-1151v313l737 906h-409v-240h-326v537h1151v-314z" />
    <glyph glyph-name="bracketleft" unicode="[" horiz-adv-x="670" 
d="M82 1612h547v-246h-223v-1630h223v-248h-547v2124z" />
    <glyph glyph-name="backslash" unicode="\" horiz-adv-x="778" 
d="M6 1384h236l571 -1677h-242z" />
    <glyph glyph-name="bracketright" unicode="]" horiz-adv-x="670" 
d="M266 1366h-223v246h547v-2124h-547v248h223v1630z" />
    <glyph glyph-name="asciicircum" unicode="^" horiz-adv-x="1229" 
d="M771 1513l404 -790h-296l-263 528l-274 -528h-290l416 790h303z" />
    <glyph glyph-name="underscore" unicode="_" horiz-adv-x="1024" 
d="M0 -90h1024v-256h-1024v256z" />
    <glyph glyph-name="grave" unicode="`" horiz-adv-x="774" 
d="M461 1178l-293 286v25h326l196 -311h-229z" />
    <glyph glyph-name="a" unicode="a" horiz-adv-x="1280" 
d="M717 56c-23.333 -14.667 -44.6641 -27.1699 -63.9971 -37.5029s-38.666 -18.666 -57.999 -24.999s-39.333 -11 -60 -14s-43.334 -4.5 -68.001 -4.5c-62 0 -117.5 8.5 -166.5 25.5s-90.333 40.333 -124 70s-59.5 64.667 -77.5 105s-27 84.166 -27 131.499
c0 48 9.16699 92.333 27.5 133s44.833 75.5 79.5 104.5s77.167 51.667 127.5 68s107.833 24.5 172.5 24.5c47.333 0 90.5 -2.5 129.5 -7.5s75.167 -11.167 108.5 -18.5v32c0 26 -5 48.5 -15 67.5s-24 34.667 -42 47s-39.667 21.333 -65 27s-53 8.5 -83 8.5
c-62.667 0 -117.834 -6.16699 -165.501 -18.5s-93.5 -30.166 -137.5 -53.499l-96 194c68 46.667 139.167 82.334 213.5 107.001s153.166 37 236.499 37c64.667 0 124.5 -7.16699 179.5 -21.5s102.167 -37.666 141.5 -69.999s70.166 -74.5 92.499 -126.5
s33.5 -115.333 33.5 -190v-377h139v-274h-432v56zM489.002 210.997c47.333 0 90.335 7.6709 129.002 23.0039s71.667 34 99 56v132h-240c-15.333 0 -30.333 -2.33301 -45 -7s-27.834 -11.334 -39.501 -20.001s-21 -19.334 -28 -32.001s-10.5 -27.334 -10.5 -44.001
c0 -30.667 11.167 -56.334 33.5 -77.001s56.166 -31 101.499 -31z" />
    <glyph glyph-name="b" unicode="b" horiz-adv-x="1305" 
d="M29 1556l451.999 0.000976562v-543c36 17.333 73 30.666 111 39.999s77 14 117 14c76.667 0 147.667 -14.333 213 -43s121.666 -67.667 168.999 -117s84.5 -107 111.5 -173s40.5 -136 40.5 -210c0 -74.667 -13.167 -145 -39.5 -211s-63.166 -123.5 -110.499 -172.5
s-103.666 -87.667 -168.999 -116s-137 -42.5 -215 -42.5c-42 0 -82 4 -120 12s-74 19.333 -108 34v-28h-307v1282h-145v274zM687.999 791.001c-44 0 -83.5 -9.99707 -118.5 -29.9971s-64.5 -48.667 -88.5 -86v-310c21.333 -32 49.833 -57.833 85.5 -77.5
s75.5 -29.5 119.5 -29.5c34 0 66.333 6.16699 97 18.5s57.5 30 80.5 53s41.167 50.667 54.5 83s20 68.833 20 109.5c0 41.333 -6.66699 78.666 -20 111.999s-31.333 61.666 -54 84.999s-49.167 41.166 -79.5 53.499s-62.5 18.5 -96.5 18.5z" />
    <glyph glyph-name="c" unicode="c" horiz-adv-x="1180" 
d="M856 678c-28.667 36 -60.667 63.1709 -96 81.5039s-77 26.166 -125 23.499c-38.667 2.66699 -73.834 -2.66602 -105.501 -15.999s-59 -32 -82 -56s-40.833 -52.5 -53.5 -85.5s-19 -70.167 -19 -111.5c0 -36.667 6.66699 -71.334 20 -104.001s31.5 -60.834 54.5 -84.501
s50.333 -42.167 82 -55.5s66.167 -21.333 103.5 -24c31.333 2.66699 59.833 9.16699 85.5 19.5s48.5 23.666 68.5 39.999s37.167 34.666 51.5 54.999s25.5 39.5 33.5 57.5l275 -76c-11.333 -40 -30.833 -81.667 -58.5 -125s-63.667 -82.833 -108 -118.5
s-97 -65.167 -158 -88.5s-130.5 -35 -208.5 -35c-79.333 0 -152.333 14.5 -219 43.5s-124 68.5 -172 118.5s-85.5 108.667 -112.5 176s-40.5 139.666 -40.5 216.999c0 76.667 13.833 147.834 41.5 213.501s65.834 123 114.501 172s106.5 87.167 173.5 114.5
s139.833 39.666 218.5 36.999c56 2.66699 110.333 -3.66602 163 -18.999s102.667 -38.333 150 -69h199v-301h-276z" />
    <glyph glyph-name="d" unicode="d" horiz-adv-x="1400" 
d="M693 1556l453 0.000976562v-1282h202v-274h-510v40c-36 -18.667 -72.833 -33.334 -110.5 -44.001s-75.834 -16 -114.501 -16c-79.333 0 -152.166 14.167 -218.499 42.5s-123.333 67.166 -171 116.499s-84.834 107.166 -111.501 173.499s-40 137.5 -40 213.5
s13.167 146.833 39.5 212.5s63 122.834 110 171.501s103.333 87 169 115s137.834 42 216.501 42c43.333 0 84 -4.16699 122 -12.5s74.333 -20.166 109 -35.499v263h-145v274zM630 256.001c44 1.33301 83.833 12.667 119.5 34s65.167 49.333 88.5 84v305
c-23.333 35.333 -53.5 62.833 -90.5 82.5s-76.167 29.167 -117.5 28.5c-34.667 0.666992 -67.167 -5.33301 -97.5 -18s-57 -30.667 -80 -54s-41.167 -51.333 -54.5 -84s-20 -69.667 -20 -111c0 -40.667 6.66699 -77.5 20 -110.5s31.5 -61 54.5 -84s49.667 -40.5 80 -52.5
s62.833 -18.667 97.5 -20z" />
    <glyph glyph-name="e" unicode="e" horiz-adv-x="1186" 
d="M349 453l3.00098 -31.0039c7.33301 -30 19.833 -56.333 37.5 -79s38.5 -41.667 62.5 -57s50.667 -26.833 80 -34.5s59 -11.5 89 -11.5s58.5 1.83301 85.5 5.5s53.167 8.66699 78.5 15s50 13.666 74 21.999l73 26.5l110 -205c-38 -23.333 -72.833 -43.166 -104.5 -59.499
s-63.5 -29.833 -95.5 -40.5s-66 -18.5 -102 -23.5s-78 -7.5 -126 -7.5c-90 0 -170 14.833 -240 44.5s-128.833 69.834 -176.5 120.501s-84 110 -109 178s-37.5 140 -37.5 216s13.167 147.333 39.5 214s63.5 124.834 111.5 174.501s105.333 88.834 172 117.501
s140.667 43 222 43s153.5 -13.5 216.5 -40.5s116.167 -64.333 159.5 -112s76.666 -103.667 99.999 -168s36 -133.5 38 -207.5c2 -16.667 3.16699 -33.167 3.5 -49.5s-0.166992 -33.166 -1.5 -50.499h-763zM588.001 830.996c-37.333 0 -69.166 -4.5 -95.499 -13.5
s-48.5 -21.333 -66.5 -37s-32.333 -33.5 -43 -53.5s-19 -41 -25 -63h433c-4.66699 22.667 -11.334 44 -20.001 64s-20.667 37.667 -36 53s-34.833 27.5 -58.5 36.5s-53.167 13.5 -88.5 13.5z" />
    <glyph glyph-name="f" unicode="f" horiz-adv-x="815" 
d="M530 1036l188.999 0.000976562v-262h-189v-500h191v-274h-643v274h155v500h-157v262h157v172c0 60.667 10.667 114 32 160s49.833 84.667 85.5 116s76.834 55 123.501 71s95.667 24 147 24c38 0 72 -2.83301 102 -8.5s56.333 -12.834 79 -21.501s41.834 -18 57.501 -28
s28.167 -19.333 37.5 -28l-115 -211c-15.333 11.333 -32.666 20.333 -51.999 27s-43 10 -71 10c-18 0 -34.833 -3 -50.5 -9s-29.334 -14.667 -41.001 -26s-20.834 -25.5 -27.501 -42.5s-10 -36.833 -10 -59.5v-146z" />
    <glyph glyph-name="g" unicode="g" horiz-adv-x="1295" 
d="M849 54c-37.333 -21.333 -74.666 -36.6641 -111.999 -45.9971s-75.333 -14 -114 -14c-80 0 -153.667 13.667 -221 41s-125.5 65.166 -174.5 113.499s-87.167 105.5 -114.5 171.5s-41 137.667 -41 215c0 72.667 13.167 141.167 39.5 205.5s63.166 120.666 110.499 168.999
s104 86.5 170 114.5s137.667 42.333 215 43c47.333 -0.666992 90.833 -5.66699 130.5 -15s76.834 -22 111.501 -38v22h303v-993c0 -87.333 -15 -162.833 -45 -226.5s-70.167 -116.334 -120.5 -158.001s-108.833 -72.667 -175.5 -93s-136.667 -30.5 -210 -30.5
c-90.667 0 -174.5 12.333 -251.5 37s-145.5 58 -205.5 100l125 222c46 -29.333 96 -52.5 150 -69.5s114 -25.5 180 -25.5c36 0 69.167 4 99.5 12s56.666 21.5 78.999 40.5s39.833 44.5 52.5 76.5s19 72.333 19 121v5zM633 271.002c46.667 0 88.833 11.832 126.5 35.499
s67.5 54.834 89.5 93.501l2 252c-22.667 42 -53.667 75.333 -93 100s-82 37.334 -128 38.001c-32.667 -0.666992 -64.667 -7.16699 -96 -19.5s-58.5 -29.833 -81.5 -52.5s-41.167 -49.5 -54.5 -80.5s-20 -65.5 -20 -103.5c0 -40 6.66699 -76.333 20 -109
s31.333 -60.334 54 -83.001s49.5 -40.167 80.5 -52.5s64.5 -18.5 100.5 -18.5z" />
    <glyph glyph-name="h" unicode="h" horiz-adv-x="1386" 
d="M57 1556h467v-616c39.333 36 82.5 64.167 129.5 84.5s98.833 30.5 155.5 30.5c124.667 0 220 -34.833 286 -104.5s99 -171.5 99 -305.5v-371h152v-274h-463v575c0 58 -14.333 103.667 -43 137s-65.667 50 -111 50c-30 0 -62.667 -8.33301 -98 -25s-71 -41 -107 -73v-390
h152v-274h-619v274h160v1008h-160v274z" />
    <glyph glyph-name="i" unicode="i" horiz-adv-x="790" 
d="M80 1036h465v-762h144v-274h-609v274h156v488h-156v274zM220 1370c0 24.667 4.5 47.834 13.5 69.501s21.5 40.5 37.5 56.5s34.833 28.667 56.5 38s45.167 14 70.5 14c24 0 46.667 -4.66699 68 -14s40 -22 56 -38s28.667 -34.833 38 -56.5s14 -44.834 14 -69.501
s-4.66699 -47.834 -14 -69.501s-22 -40.5 -38 -56.5s-34.667 -28.667 -56 -38s-44 -14 -68 -14c-25.333 0 -48.833 4.66699 -70.5 14s-40.5 22 -56.5 38s-28.5 34.833 -37.5 56.5s-13.5 44.834 -13.5 69.501z" />
    <glyph glyph-name="j" unicode="j" horiz-adv-x="621" 
d="M51 1036l455 0.000976562v-1054c0 -79.333 -9.83301 -147.333 -29.5 -204s-48.334 -103.334 -86.001 -140.001s-84.167 -63.667 -139.5 -81s-118.666 -26 -189.999 -26l-4 227c48 2 83.667 21.167 107 57.5s35 84.833 35 145.5v801h-148v274zM182 1370
c0 24.667 4.5 47.834 13.5 69.501s21.5 40.5 37.5 56.5s34.833 28.667 56.5 38s45.167 14 70.5 14c24 0 46.833 -4.66699 68.5 -14s40.667 -22 57 -38s29.333 -34.833 39 -56.5s14.5 -44.834 14.5 -69.501s-4.83301 -47.834 -14.5 -69.501s-22.667 -40.5 -39 -56.5
s-35.333 -28.667 -57 -38s-44.5 -14 -68.5 -14c-25.333 0 -48.833 4.66699 -70.5 14s-40.5 22 -56.5 38s-28.5 34.833 -37.5 56.5s-13.5 44.834 -13.5 69.501z" />
    <glyph glyph-name="k" unicode="k" horiz-adv-x="1450" 
d="M59 1556h467v-897h175l72 103v274h536v-274h-186l-193 -223l197 -238h172v-301h-281l-336 444h-156v-170h106v-274h-573v274h160v1008h-160v274z" />
    <glyph glyph-name="l" unicode="l" horiz-adv-x="780" 
d="M59 1556h467v-1282h160v-274h-627v274h160v1008h-160v274z" />
    <glyph glyph-name="m" unicode="m" horiz-adv-x="2156" 
d="M82 1036l474.002 -0.000976562v-90c42.667 34 90.667 61 144 81s108.333 30 165 30c78.667 0 146.167 -13.833 202.5 -41.5s100.5 -69.834 132.5 -126.501c22 24.667 46.833 47.167 74.5 67.5s57.167 38 88.5 53s64.166 26.667 98.499 35s69.5 12.5 105.5 12.5
c126.667 0 224 -35 292 -105s102 -172.333 102 -307v-371h147v-274h-473v594c0 58.667 -15.167 104.667 -45.5 138s-72.5 50 -126.5 50c-37.333 0 -72.5 -8.83301 -105.5 -26.5s-65.833 -48.167 -98.5 -91.5c0.666992 -7.33301 1 -14.833 1 -22.5v-23.5v-344h150v-274h-473
v596c0 28 -4.33301 53.333 -13 76s-20.667 42 -36 58s-33.5 28.5 -54.5 37.5s-44.167 13.833 -69.5 14.5c-33.333 0.666992 -67.833 -6.66602 -103.5 -21.999s-69.834 -43.666 -102.501 -84.999v-401h166v-274h-644v274h154v488h-152v274z" />
    <glyph glyph-name="n" unicode="n" horiz-adv-x="1460" 
d="M932 596c0 58 -15.333 103.5 -46 136.5s-71.334 49.5 -122.001 49.5c-34.667 0 -69.667 -7.66699 -105 -23s-69.666 -44 -102.999 -86v-399h168v-274h-644v274h152v488h-150v274h472v-91c43.333 34 91.833 60.833 145.5 80.5s110.167 29.5 169.5 29.5
c124.667 0 220.667 -34.833 288 -104.5s101 -171.5 101 -305.5v-371h147v-274h-473v596z" />
    <glyph glyph-name="o" unicode="o" 
d="M72 522c0 75.333 13.665 146.001 40.998 212.001s65.333 123.667 114 173s106.667 88.333 174 117s141.333 43 222 43s154.834 -14.333 222.501 -43s125.834 -67.667 174.501 -117s86.5 -107 113.5 -173s40.5 -136.667 40.5 -212s-13.167 -146.166 -39.5 -212.499
s-63.666 -124.333 -111.999 -174s-106.333 -88.834 -174 -117.501s-142.834 -43 -225.501 -43c-83.333 0 -158.833 14.333 -226.5 43s-125.5 67.667 -173.5 117s-85.167 107.166 -111.5 173.499s-39.5 137.5 -39.5 213.5zM370.998 522.001
c0 -39.333 6.66699 -75.5 20 -108.5s31.5 -61.5 54.5 -85.5s49.667 -42.667 80 -56s62.833 -20 97.5 -20c35.333 0 68.166 6.5 98.499 19.5s56.666 31.5 78.999 55.5s39.833 52.5 52.5 85.5s19 69.5 19 109.5c0 41.333 -6.33301 78.666 -19 111.999
s-30.167 61.666 -52.5 84.999s-48.666 41.166 -78.999 53.499s-63.166 18.166 -98.499 17.499c-34.667 0.666992 -67.167 -5.16602 -97.5 -17.499s-57 -30.166 -80 -53.499s-41.167 -51.666 -54.5 -84.999s-20 -70.666 -20 -111.999z" />
    <glyph glyph-name="p" unicode="p" horiz-adv-x="1368" 
d="M119 1036l452 0.000976562v-15c32 14 64.667 25.167 98 33.5s67.666 12.5 102.999 12.5c76 0 146.667 -14.333 212 -43s122 -67.667 170 -117s85.5 -107 112.5 -173s40.5 -136 40.5 -210c0 -74.667 -13.167 -145 -39.5 -211s-63.166 -123.5 -110.499 -172.5
s-103.833 -87.667 -169.5 -116s-137.5 -42.5 -215.5 -42.5c-44 0 -85 4.16699 -123 12.5s-74.667 20.166 -110 35.499v-227h198v-274h-676v274h170v959h-112v274zM750 791.001c-42 0 -81.332 -11 -117.999 -33s-67.667 -53 -93 -93v-292c21.333 -34 50.333 -61.667 87 -83
s78 -32 124 -32c34 0 66.333 6.5 97 19.5s57.334 31.333 80.001 55s40.667 51.667 54 84s20 67.5 20 105.5c0 42 -6.5 79.667 -19.5 113s-30.833 61.5 -53.5 84.5s-49.334 40.667 -80.001 53s-63.334 18.5 -98.001 18.5z" />
    <glyph glyph-name="q" unicode="q" horiz-adv-x="1333" 
d="M606 -197l214.998 -0.00195312v234c-35.333 -17.333 -71.166 -31.166 -107.499 -41.499s-73.5 -15.5 -111.5 -15.5c-79.333 0 -152.166 14.167 -218.499 42.5s-123.333 67.333 -171 117s-84.834 107.834 -111.501 174.501s-40 138 -40 214c0 74 13.167 143.667 39.5 209
s63 122.5 110 171.5s103.333 87.667 169 116s137.834 42.5 216.501 42.5c42 0 81.5 -4 118.5 -12s72.5 -19.333 106.5 -34v46h307v-1264h154v-274h-676v274zM620.998 257.998c41.333 0 79.1689 9.5 113.502 28.5s63.166 45.167 86.499 78.5v321
c-23.333 32.667 -53 58.334 -89 77.001s-74 28 -114 28c-34 0 -66.333 -6.33301 -97 -19s-57.334 -30.667 -80.001 -54s-40.667 -51.333 -54 -84s-20 -69.334 -20 -110.001c0 -41.333 6.66699 -78.5 20 -111.5s31.5 -61 54.5 -84s49.833 -40.5 80.5 -52.5s63.667 -18 99 -18
z" />
    <glyph glyph-name="r" unicode="r" horiz-adv-x="1110" 
d="M1020 659l-280.999 0.000976562v107c-27.333 0 -52.333 -1.83301 -75 -5.5s-42.5 -9.83398 -59.5 -18.501s-31.333 -20.667 -43 -36s-19.834 -34.333 -24.501 -57v-375h211v-274h-676v274h155v488h-153v274h461v-73c29.333 23.333 62.333 41.333 99 54s76.667 19 120 19
c44 0 89.333 -0.333008 136 -1s90 -1 130 -1v-375z" />
    <glyph glyph-name="s" unicode="s" horiz-adv-x="1102" 
d="M725.5 765c-10.333 14.667 -25.5029 27.5029 -45.5029 38.5029s-44.5 19.833 -73.5 26.5s-61.833 10 -98.5 10c-14 0 -29 -1.16699 -45 -3.5s-30.833 -6.5 -44.5 -12.5s-25 -14.167 -34 -24.5s-13.5 -23.5 -13.5 -39.5c0 -8 1.16699 -15.667 3.5 -23
s6.83301 -14.333 13.5 -21s15.834 -12.834 27.501 -18.501s26.834 -10.167 45.501 -13.5l188 -37c68 -13.333 125 -30 171 -50s83 -43.333 111 -70s48.167 -56.334 60.5 -89.001s18.5 -68 18.5 -106c0 -59.333 -13.833 -111.333 -41.5 -156s-64 -81.834 -109 -111.501
s-95.667 -52 -152 -67s-113.166 -22.5 -170.499 -22.5c-37.333 0 -71.166 2.33301 -101.499 7s-57.666 11 -81.999 19s-46 17.5 -65 28.5s-36.5 23.167 -52.5 36.5h-181v278h283v-6c0.666992 -19.333 6.66699 -36.166 18 -50.499s26.166 -26.5 44.499 -36.5
s39.166 -17.5 62.499 -22.5s48 -7.5 74 -7.5c60 0 103.667 7.83301 131 23.5s41 35.834 41 60.501c0 19.333 -6.66699 35.833 -20 49.5s-37 24.5 -71 32.5l-192 41c-120.667 23.333 -211.667 62.166 -273 116.499s-92 124.166 -92 209.499c0 50 11.667 95.5 35 136.5
s55 76 95 105s86.833 51.5 140.5 67.5s111.167 24 172.5 24c42 0 79.333 -2.5 112 -7.5s62 -11.5 88 -19.5s48.833 -17.5 68.5 -28.5s37.167 -22.5 52.5 -34.5h174v-278h-258c0 16 -5.16699 31.333 -15.5 46z" />
    <glyph glyph-name="t" unicode="t" horiz-adv-x="800" 
d="M471 1036l207.001 -0.00195312v-262h-209l-2 -438c0 -25.333 2 -45.833 6 -61.5s9.83301 -28.167 17.5 -37.5s16.834 -15.666 27.501 -18.999s23 -5 37 -5c25.333 0 47.666 2.5 66.999 7.5s38.666 10.833 57.999 17.5l43 -193c-34 -21.333 -71.833 -38.333 -113.5 -51
s-91.167 -19 -148.5 -19c-40.667 0 -79.5 7 -116.5 21s-69.5 35.167 -97.5 63.5s-50.333 63.833 -67 106.5s-24.667 92.334 -24 149.001l3 459h-149v262h150l2 248l311 148z" />
    <glyph glyph-name="u" unicode="u" horiz-adv-x="1410" 
d="M723 1036l490 -0.000976562v-762h125v-274h-439v88c-35.333 -32 -76.666 -56.667 -123.999 -74s-102 -26 -164 -26c-57.333 0 -111.333 9 -162 27s-94.834 45.167 -132.501 81.5s-67.334 81.833 -89.001 136.5s-32.5 119 -32.5 193v336h-135v274h458v-610
c0 -69.333 17.667 -121.166 53 -155.499s81.333 -51.5 138 -51.5c40 0 76.333 12.333 109 37s56.334 58 71.001 100v406h-166v274z" />
    <glyph glyph-name="v" unicode="v" horiz-adv-x="1257" 
d="M41 1036h541v-274h-126l169 -445l163 445h-112v274h541v-274h-138l-309 -766h-305l-309 766h-115v274z" />
    <glyph glyph-name="w" unicode="w" horiz-adv-x="1898" 
d="M41 1036h541v-274h-117l110 -369l213 643h293l215 -676l132 402h-111v274h541v-274h-139l-277 -766h-299l-217 661l-221 -661h-291l-257 766h-116v274z" />
    <glyph glyph-name="x" unicode="x" horiz-adv-x="1235" 
d="M686 274h59l-129 123l-134 -123h67v-274h-488v274h103l257 252l-238 236h-122v274h488v-274h-47l121 -107l116 107h-55v274h487v-274h-114l-239 -237l253 -251h103v-274h-488v274z" />
    <glyph glyph-name="y" unicode="y" horiz-adv-x="1241" 
d="M51 1036h508v-274h-80l149 -388l153 388h-89v274h508v-274h-113l-401 -959h178v-274h-643v274h181l78 197l-324 762h-105v274z" />
    <glyph glyph-name="z" unicode="z" horiz-adv-x="1140" 
d="M94 164l429 606h-201v-156h-261v422h908v-180l-451 -588h230v199h262v-467h-916v164z" />
    <glyph glyph-name="braceleft" unicode="{" horiz-adv-x="897" 
d="M102 797c23.333 4 45.5 6.32812 66.5 6.99512s40.333 2.33398 58 5.00098s33.5 7.33398 47.5 14.001s25.833 17.834 35.5 33.501s17.167 36.667 22.5 63s8 60.5 8 102.5v401c0 64.667 6.33301 119.334 19 164.001s31.667 80.667 57 108s56.666 47 93.999 59s81 18 131 18
c31.333 0 59 -0.5 83 -1.5s44.333 -2.16699 61 -3.5c19.333 -1.33301 36.333 -2.66602 51 -3.99902v-307c-31.333 -1.33301 -56.5 -4.5 -75.5 -9.5s-33.833 -13.167 -44.5 -24.5s-17.667 -26.666 -21 -45.999s-5 -43.666 -5 -72.999v-410c0 -22 -1.5 -42.167 -4.5 -60.5
s-8.5 -35.166 -16.5 -50.499s-19.333 -29.5 -34 -42.5s-33.667 -24.833 -57 -35.5c24 -10 43.333 -22.167 58 -36.5s26 -30.166 34 -47.499s13.333 -35.833 16 -55.5s4 -39.834 4 -60.501v-371c0 -34 1.66699 -61.5 5 -82.5s10.333 -37.167 21 -48.5s25.5 -19.333 44.5 -24
s44.167 -7.66699 75.5 -9v-327c-14.667 -2 -31.667 -3.66699 -51 -5c-16.667 -1.33301 -37 -2.33301 -61 -3s-51.667 -1 -83 -1c-50 0 -93.667 6 -131 18s-68.666 31.667 -93.999 59s-44.333 63.166 -57 107.499s-19 99.166 -19 164.499v475
c-4.66699 41.333 -14 71.5 -28 90.5s-31.667 32.167 -53 39.5s-45.333 11.166 -72 11.499s-55 2.83301 -85 7.5v191z" />
    <glyph glyph-name="bar" unicode="|" horiz-adv-x="594" 
d="M123 1729h252v-1999h-252v1999z" />
    <glyph glyph-name="braceright" unicode="}" horiz-adv-x="897" 
d="M61 -358l-0.00195312 326.999c31.333 1.33301 56.5 4.33301 75.5 9s33.833 12.667 44.5 24s17.667 27.5 21 48.5s5 48.5 5 82.5v371c0 20.667 1.33301 40.834 4 60.501s8 38.167 16 55.5s19.333 33.166 34 47.499s34 26.5 58 36.5c-23.333 10.667 -42.333 22.5 -57 35.5
s-26 27.167 -34 42.5s-13.5 32.166 -16.5 50.499s-4.5 38.5 -4.5 60.5v410c0 29.333 -1.66699 53.666 -5 72.999s-10.333 34.666 -21 45.999s-25.5 19.5 -44.5 24.5s-44.167 8.16699 -75.5 9.5v307c14.667 1.33301 31.667 2.66602 51 3.99902
c16.667 1.33301 36.834 2.5 60.501 3.5s51.5 1.5 83.5 1.5c41.333 0 78.5 -4.16699 111.5 -12.5s61.833 -21.666 86.5 -39.999s44.834 -42.166 60.501 -71.499s27.167 -65.333 34.5 -108c3.33301 -17.333 5.5 -35.833 6.5 -55.5s1.5 -40.167 1.5 -61.5v-321
c0 -57.333 2 -104 6 -140s10.167 -64.5 18.5 -85.5s18.833 -36.167 31.5 -45.5s27.834 -15.833 45.501 -19.5s37.834 -6 60.501 -7s48 -3.5 76 -7.5v-191c-30 -4.66699 -58.333 -7.16699 -85 -7.5s-50.667 -4.16602 -72 -11.499s-39 -20.5 -53 -39.5
s-23.333 -49.167 -28 -90.5v-475c0 -21.333 -0.5 -41.833 -1.5 -61.5s-3.16699 -38.167 -6.5 -55.5c-7.33301 -42.667 -18.833 -78.667 -34.5 -108s-35.834 -53.166 -60.501 -71.499s-53.5 -31.666 -86.5 -39.999s-70.167 -12.5 -111.5 -12.5
c-32 0 -59.833 0.333008 -83.5 1s-43.834 1.66699 -60.501 3c-19.333 1.33301 -36.333 3 -51 5z" />
    <glyph glyph-name="asciitilde" unicode="~" horiz-adv-x="905" 
d="M-8 512c0 20 1.66504 42 4.99805 66s8.83301 48.167 16.5 72.5s18.167 47.833 31.5 70.5s30 42.834 50 60.501s44 31.834 72 42.501s60.333 16 97 16c16 0 34.5 -3.66699 55.5 -11s43.167 -16.333 66.5 -27s47.333 -22.334 72 -35.001s48.5 -24.334 71.5 -35.001
s44.333 -19.334 64 -26.001s36.834 -10 51.501 -10c31.333 0 54.5 9.16699 69.5 27.5s25.167 47.5 30.5 87.5l185 -41c0 -30 -4.16699 -63.5 -12.5 -100.5s-23.5 -71.833 -45.5 -104.5s-52 -60.667 -90 -84s-87 -35 -147 -35c-36.667 0 -72.667 7.83301 -108 23.5
s-69.166 32.334 -101.499 50.001l-90.5 48.5c-28 14.667 -53 22 -75 22c-12.667 0 -24.667 -1.83301 -36 -5.5s-21.333 -10 -30 -19s-15.667 -20.833 -21 -35.5s-8.33301 -33 -9 -55z" />
    <glyph glyph-name="exclamdown" unicode="&#xa1;" horiz-adv-x="696" 
d="M139 985c0 24.667 4.5 47.834 13.5 69.501s21.5 40.5 37.5 56.5s34.833 28.667 56.5 38s45.167 14 70.5 14c24 0 46.667 -4.66699 68 -14s40 -22 56 -38s28.667 -34.833 38 -56.5s14 -44.834 14 -69.501s-4.66699 -47.834 -14 -69.501s-22 -40.5 -38 -56.5
s-34.667 -28.667 -56 -38s-44 -14 -68 -14c-25.333 0 -48.833 4.66699 -70.5 14s-40.5 22 -56.5 38s-28.5 34.833 -37.5 56.5s-13.5 44.834 -13.5 69.501zM180 596h287l41 -1067h-369z" />
    <glyph glyph-name="cent" unicode="&#xa2;" 
d="M461 -188l0.00195312 348.001c-58.667 16 -111.834 40.833 -159.501 74.5s-88.5 73.834 -122.5 120.501s-60.333 98.834 -79 156.501s-28 118.5 -28 182.5c0 64.667 9.33301 125.667 28 183s45.167 109 79.5 155s75.333 85.5 123 118.5s100.5 57.5 158.5 73.5v355h332
v-361c23.333 -7.33301 46.5 -16 69.5 -26s45.167 -21.667 66.5 -35h199v-301h-276c-28.667 33.333 -60.667 59.166 -96 77.499s-77 27.5 -125 27.5c-38.667 0 -73.834 -6.66699 -105.501 -20s-59 -32 -82 -56s-40.833 -52.5 -53.5 -85.5s-19 -68.833 -19 -107.5
c0 -39.333 6.66699 -75.333 20 -108s31.5 -60.834 54.5 -84.501s50.333 -42.167 82 -55.5s66.167 -20 103.5 -20c31.333 0 59.833 5.16699 85.5 15.5s48.5 23.666 68.5 39.999s37.167 34.666 51.5 54.999s25.5 40.833 33.5 61.5l275 -80
c-9.33301 -32 -23.5 -65.5 -42.5 -100.5s-43.167 -68.5 -72.5 -100.5s-63.833 -61.167 -103.5 -87.5s-84.167 -47.166 -133.5 -62.499v-353h-332z" />
    <glyph glyph-name="sterling" unicode="&#xa3;" horiz-adv-x="1065" 
d="M41 829h100.002c-6 28.667 -10.833 58.834 -14.5 90.501s-5.5 66.5 -5.5 104.5c0 66.667 11.5 126.667 34.5 180s54.5 98.833 94.5 136.5s86.833 66.667 140.5 87s111.167 30.5 172.5 30.5c139.333 0 248.166 -37 326.499 -111s123.166 -183.667 134.499 -329l-336 -12
c-2 53.333 -13.833 93.166 -35.5 119.499s-49.5 39.5 -83.5 39.5c-30.667 0 -57 -11 -79 -33s-33 -57.333 -33 -106c0 -20.667 1.83301 -42.334 5.5 -65.001s9 -44.167 16 -64.5s15.167 -42.833 24.5 -67.5h269v-245h-173c4.66699 -26 7.16699 -53.167 7.5 -81.5
s-1 -56.166 -4 -83.499s-7.83301 -53.5 -14.5 -78.5s-14.334 -47.167 -23.001 -66.5h420v-274h-899v274h160c10 36 15.833 75.333 17.5 118s-1.16602 76 -8.49902 100l-17 54.5c-4 12.333 -8.66699 24.833 -14 37.5h-183v245z" />
    <glyph glyph-name="currency" unicode="&#xa4;" horiz-adv-x="1438" 
d="M182 741c0 46 5.50098 90.166 16.501 132.499s26.833 82.5 47.5 120.5l-195 212l264 242l194 -212c32.667 14 66.667 24.833 102 32.5s72 11.5 110 11.5c37.333 0 73.666 -3.83301 108.999 -11.5s69 -18.167 101 -31.5l193 211l265 -242l-194 -211
c20.667 -38 36.667 -78.333 48 -121s17 -87 17 -133s-5.66699 -90.5 -17 -133.5s-27.333 -83.5 -48 -121.5l179 -191l-264 -240l-178 191c-66.667 -28.667 -137 -43 -211 -43c-38 0 -75 3.83301 -111 11.5s-70.667 18.834 -104 33.501l-176 -193l-264 240l178 195
c-19.333 38 -34.5 77.833 -45.5 119.5s-16.5 85.5 -16.5 131.5zM469.001 749.999c0 -35.333 6.5 -68.3311 19.5 -98.998s30.833 -57.334 53.5 -80.001s49.334 -40.5 80.001 -53.5s63.667 -19.5 99 -19.5c34.667 0 67.334 6.5 98.001 19.5s57.334 30.833 80.001 53.5
s40.667 49.334 54 80.001s20 63.667 20 99s-6.66699 68.333 -20 99s-31.333 57.167 -54 79.5s-49.334 40 -80.001 53s-63.334 19.5 -98.001 19.5c-35.333 0 -68.333 -6.5 -99 -19.5s-57.334 -30.833 -80.001 -53.5s-40.5 -49.334 -53.5 -80.001s-19.5 -63.334 -19.5 -98.001
z" />
    <glyph glyph-name="yen" unicode="&#xa5;" horiz-adv-x="1536" 
d="M842 1516h649v-275h-113l-246 -313h160v-258h-362l-2 -3v-57h364v-258h-364v-78h184v-274h-676v274h168v78h-360v258h360v60h-360v258h169l-232 313h-134v275h649v-275h-125l201 -307l214 307h-144v275z" />
    <glyph glyph-name="brokenbar" unicode="&#xa6;" horiz-adv-x="594" 
d="M123 1729h252v-758h-252v758zM123 487h252v-757h-252v757z" />
    <glyph glyph-name="section" unicode="&#xa7;" horiz-adv-x="1128" 
d="M29 72l347.997 -0.00488281v-91c2 -13.333 6 -28.666 12 -45.999s17.167 -34.166 33.5 -50.499s37.166 -29.166 62.499 -38.499s55.333 -14 90 -14c50 0 87.833 11.333 113.5 34s38.5 53.667 38.5 93c0 20 -4.66699 36.667 -14 50s-21.333 24.5 -36 33.5
s-31 16.667 -49 23l-53 18.5l-213 68c-38 12 -75.167 29 -111.5 51s-68.666 49.5 -96.999 82.5s-51.166 71.667 -68.499 116s-26 94.833 -26 151.5c0 66.667 11.167 123.167 33.5 169.5s49.833 84.833 82.5 115.5c-10 9.33301 -24.5 25 -43.5 47s-37.167 55 -54.5 99
s-26 94.333 -26 151c0 67.333 12.667 126.833 38 178.5s60.166 94.834 104.499 129.501s97 60.834 158 78.501s127.5 26.5 199.5 26.5c63.333 0 121.333 -7.83301 174 -23.5s98.834 -36.334 138.501 -62.001s69.5 -51.5 89.5 -77.5s34.667 -48.667 44 -68h95v-295h-349v49
h-2c4 24.667 1.66699 48.667 -7 72s-21.667 43.666 -39 60.999s-38.333 31.333 -63 42s-51 16 -79 16c-19.333 0 -38 -1.66699 -56 -5s-34 -9.16602 -48 -17.499s-25.167 -19.333 -33.5 -33s-12.5 -30.834 -12.5 -51.501c0 -26 5.66699 -46.667 17 -62
s26 -27.666 44 -36.999s37.833 -17 59.5 -23s43.167 -12.333 64.5 -19l264 -88c30.667 -10.667 59.834 -26.5 87.501 -47.5s51.834 -46.5 72.501 -76.5s37 -64.667 49 -104s18 -83 18 -131c0 -68 -10.5 -126 -31.5 -174s-45.833 -88.333 -74.5 -121
c17.333 -15.333 35 -35.5 53 -60.5s33.167 -57 45.5 -96s18.5 -82.167 18.5 -129.5c0 -68 -12.333 -130 -37 -186s-59.5 -104 -104.5 -144s-99 -70.833 -162 -92.5s-132.5 -32.5 -208.5 -32.5c-60 0 -117.333 8 -172 24s-103.5 38.833 -146.5 68.5s-74 58.834 -93 87.501
s-32.167 50.667 -39.5 66h-98v295zM455.497 655.495c-13 -8.33301 -23.499 -19.334 -31.499 -33.001s-12 -30.834 -12 -51.501c0 -25.333 5.5 -45.666 16.5 -60.999s25.167 -27.666 42.5 -36.999s36.666 -17 57.999 -23s42.333 -12.667 63 -20l31 -11
c23.333 6 42.333 15.667 57 29c24.667 23.333 37 55 37 95c0 20 -4.5 36.667 -13.5 50s-20.5 24.5 -34.5 33.5s-29.667 16.667 -47 23l-51 18.5l-31 10c-14 -0.666992 -28.333 -2.5 -43 -5.5s-28.5 -8.66699 -41.5 -17z" />
    <glyph glyph-name="dieresis" unicode="&#xa8;" horiz-adv-x="940" 
d="M47 1343c0 24.667 4.5 47.834 13.5 69.501s21.5 40.667 37.5 57s34.833 29.166 56.5 38.499s45.167 14 70.5 14c24 0 46.667 -4.66699 68 -14s40 -22.166 56 -38.499s28.667 -35.333 38 -57s14 -44.834 14 -69.501s-4.66699 -47.834 -14 -69.501s-22 -40.5 -38 -56.5
s-34.667 -28.667 -56 -38s-44 -14 -68 -14c-25.333 0 -48.833 4.66699 -70.5 14s-40.5 22 -56.5 38s-28.5 34.833 -37.5 56.5s-13.5 44.834 -13.5 69.501zM526 1343c0 24.667 4.66699 47.834 14 69.501s22 40.667 38 57s34.833 29.166 56.5 38.499s45.167 14 70.5 14
c24 0 46.667 -4.66699 68 -14s40 -22.166 56 -38.499s28.667 -35.333 38 -57s14 -44.834 14 -69.501s-4.66699 -47.834 -14 -69.501s-22 -40.5 -38 -56.5s-34.667 -28.667 -56 -38s-44 -14 -68 -14c-25.333 0 -48.833 4.66699 -70.5 14s-40.5 22 -56.5 38
s-28.667 34.833 -38 56.5s-14 44.834 -14 69.501z" />
    <glyph glyph-name="copyright" unicode="&#xa9;" horiz-adv-x="1919" 
d="M102 831c0 78.667 10.167 154.5 30.5 227.5s49 141.167 86 204.5s81.5 121 133.5 173s109.667 96.5 173 133.5s131.5 65.667 204.5 86s149.167 30.5 228.5 30.5c78.667 0 154.667 -10.167 228 -30.5s141.833 -49 205.5 -86s121.667 -81.5 174 -133.5
s97.166 -109.667 134.499 -173s66.166 -131.5 86.499 -204.5s30.5 -148.833 30.5 -227.5c0 -79.333 -10.167 -155.5 -30.5 -228.5s-49.166 -141.167 -86.499 -204.5s-82.166 -121 -134.499 -173s-110.333 -96.5 -174 -133.5s-132.167 -65.667 -205.5 -86
s-149.333 -30.5 -228 -30.5c-79.333 0 -155.5 10.167 -228.5 30.5s-141.167 49 -204.5 86s-121 81.5 -173 133.5s-96.5 109.667 -133.5 173s-65.667 131.5 -86 204.5s-30.5 149.167 -30.5 228.5zM330 831c0 -58.667 7.33105 -115 21.998 -169s35.5 -104.333 62.5 -151
s59.5 -89.167 97.5 -127.5s80.333 -71 127 -98s96.834 -47.833 150.501 -62.5s109.834 -22 168.501 -22s115 7.33301 169 22s104.167 35.5 150.5 62.5s88.5 59.667 126.5 98s70.5 80.833 97.5 127.5s47.833 97 62.5 151s22 110.333 22 169s-7.33301 115 -22 169
s-35.5 104.167 -62.5 150.5s-59.5 88.666 -97.5 126.999s-80.167 71 -126.5 98s-96.5 47.833 -150.5 62.5s-110.333 22 -169 22c-58 0 -114 -7.33301 -168 -22s-104.333 -35.5 -151 -62.5s-89 -59.667 -127 -98s-70.5 -80.666 -97.5 -126.999s-47.833 -96.5 -62.5 -150.5
s-22 -110.333 -22 -169zM1148 973c-21.333 28 -47.501 49.502 -78.501 64.502s-64.5 22.5 -100.5 22.5c-32.667 0 -62.667 -5.83301 -90 -17.5s-51.166 -28 -71.499 -49s-36.5 -45.5 -48.5 -73.5s-18 -57.667 -18 -89s6 -61 18 -89s28.167 -52.333 48.5 -73
s44.166 -36.834 71.499 -48.501s57.333 -17.5 90 -17.5c35.333 0 68.333 6.83301 99 20.5s57.667 34.5 81 62.5l190 -191c-46.667 -49.333 -101.5 -88.5 -164.5 -117.5s-131.5 -43.5 -205.5 -43.5c-68.667 0 -133.167 13 -193.5 39s-113 61.5 -158 106.5
s-80.5 97.5 -106.5 157.5s-39 124.667 -39 194s13 134.166 39 194.499s61.5 112.833 106.5 157.5s97.667 80 158 106s124.833 39 193.5 39c74.667 0 143.834 -14.333 207.501 -43s118.5 -67.667 164.5 -117z" />
    <glyph glyph-name="ordfeminine" unicode="&#xaa;" horiz-adv-x="1006" 
d="M571 909c-23.333 -12 -46.9961 -20.333 -70.9961 -25s-49.333 -7 -76 -7c-43.333 0 -81.5 5.33301 -114.5 16s-61 25.5 -84 44.5s-40.333 41.333 -52 67s-17.5 60.167 -17.5 103.5c0 29.333 4.33301 55.666 13 78.999s23 44.5 43 63.5s46.167 34.5 78.5 46.5
s72.166 18 119.499 18c30 0 58 -1.66699 84 -5s50.667 -6.66602 74 -9.99902c-2.66699 34.667 -15.5 56.334 -38.5 65.001s-52.167 13 -87.5 13c-38.667 0 -72.834 -2.66699 -102.501 -8s-60.834 -16.333 -93.501 -33l-72 141c49.333 33.333 98.833 58.166 148.5 74.499
s103.834 24.5 162.501 24.5c43.333 0 83.666 -4.5 120.999 -13.5s69.666 -23.5 96.999 -43.5s48.833 -46.5 64.5 -79.5s23.5 -73.5 23.5 -121.5v-224h94v-203h-314v17zM432.004 1050c56.667 0 102.668 11.001 138.001 33.001v70h-160c-7.33301 0 -16 -2.5 -26 -7.5
s-15 -15.833 -15 -32.5c0 -22.667 4.66699 -38.834 14 -48.501s25.666 -14.5 48.999 -14.5z" />
    <glyph glyph-name="guillemotleft" unicode="&#xab;" horiz-adv-x="1038" 
d="M567 223h-229l-256 370v74l260 369h223l-211 -406zM1008 223h-230l-256 370v74l260 369h224l-211 -406z" />
    <glyph glyph-name="logicalnot" unicode="&#xac;" horiz-adv-x="1597" 
d="M1526 1036v-788h-287v534h-1188v254h1475z" />
    <glyph glyph-name="registered" unicode="&#xae;" horiz-adv-x="2048" 
d="M528 585l95 -0.000976562v497h-91v211h532c52.667 0 98.667 -8.33301 138 -25s72.166 -38.167 98.499 -64.5s46.166 -55.5 59.499 -87.5s20 -63 20 -93c0 -34.667 -5.83301 -66.667 -17.5 -96s-30.167 -55.666 -55.5 -78.999s-54 -41.333 -86 -54
c23.333 -9.33301 42 -23 56 -41s25 -47.333 33 -88l15 -80h78v-212h-328l-15 194c-3.33301 42 -8.16602 70.333 -14.499 85s-16.166 26 -29.499 34s-36.333 12 -69 12h-66v-113h79v-212h-432v212zM881 1082v-181.999h66c46 0 82.333 6.5 109 19.5s40 36.167 40 69.5
c0 29.333 -12.667 52.166 -38 68.499s-59.333 24.5 -102 24.5h-75zM102 831c0 78.667 10.167 154.5 30.5 227.5s49 141.167 86 204.5s81.5 121 133.5 173s109.667 96.5 173 133.5s131.5 65.667 204.5 86s149.167 30.5 228.5 30.5c78.667 0 154.667 -10.167 228 -30.5
s141.833 -49 205.5 -86s121.667 -81.5 174 -133.5s97.166 -109.667 134.499 -173s66.166 -131.5 86.499 -204.5s30.5 -148.833 30.5 -227.5c0 -79.333 -10.167 -155.5 -30.5 -228.5s-49.166 -141.167 -86.499 -204.5s-82.166 -121 -134.499 -173s-110.333 -96.5 -174 -133.5
s-132.167 -65.667 -205.5 -86s-149.333 -30.5 -228 -30.5c-79.333 0 -155.5 10.167 -228.5 30.5s-141.167 49 -204.5 86s-121 81.5 -173 133.5s-96.5 109.667 -133.5 173s-65.667 131.5 -86 204.5s-30.5 149.167 -30.5 228.5zM317 831c0 -60 7.49902 -117.5 22.499 -172.5
s36.333 -106.333 64 -154s60.834 -91 99.501 -130s81.834 -72.333 129.501 -100s98.834 -49 153.501 -64s112 -22.5 172 -22.5s117.5 7.5 172.5 22.5s106.167 36.333 153.5 64s90.333 61 129 100s71.834 82.333 99.501 130s49 99 64 154s22.5 112.5 22.5 172.5
s-7.5 117.5 -22.5 172.5s-36.333 106.167 -64 153.5s-60.834 90.5 -99.501 129.5s-81.667 72.333 -129 100s-98.5 49 -153.5 64s-112.5 22.5 -172.5 22.5c-59.333 0 -116.5 -7.5 -171.5 -22.5s-106.333 -36.333 -154 -64s-90.834 -61 -129.501 -100
s-71.834 -82.167 -99.501 -129.5s-49 -98.5 -64 -153.5s-22.5 -112.5 -22.5 -172.5z" />
    <glyph glyph-name="macron" unicode="&#xaf;" horiz-adv-x="831" 
d="M770 1176h-688v215h688v-215z" />
    <glyph glyph-name="degree" unicode="&#xb0;" horiz-adv-x="815" 
d="M410 1706c42.667 0 82.6689 -7.83008 120.002 -23.4971s69.666 -37.334 96.999 -65.001s48.833 -60.5 64.5 -98.5s23.5 -79.333 23.5 -124c0 -43.333 -7.83301 -83.833 -23.5 -121.5s-37.167 -70.667 -64.5 -99s-59.666 -50.666 -96.999 -66.999
s-77.333 -24.5 -120 -24.5c-43.333 0 -83.833 8.16699 -121.5 24.5s-70.334 38.666 -98.001 66.999s-49.334 61.666 -65.001 99.999s-23.5 79.166 -23.5 122.499c0 42.667 8 82.667 24 120s38 70 66 98s60.667 50.167 98 66.5s77.333 24.5 120 24.5zM258.002 1389
c0 -19.333 4 -38 12 -56s18.667 -33.833 32 -47.5s28.666 -24.5 45.999 -32.5s35.666 -12 54.999 -12c22.667 0 43.5 3.66699 62.5 11s35.167 17.666 48.5 30.999s23.833 29.333 31.5 48s11.5 39.334 11.5 62.001s-3.66699 43.667 -11 63s-17.666 35.666 -30.999 48.999
s-29.166 23.833 -47.499 31.5s-38.166 11.5 -59.499 11.5s-41 -4 -59 -12s-33.833 -19.167 -47.5 -33.5s-24.334 -31.166 -32.001 -50.499s-11.5 -40.333 -11.5 -63z" />
    <glyph glyph-name="plusminus" unicode="&#xb1;" horiz-adv-x="1229" 
d="M102 948h363v363h297v-363h364v-297h-364v-323h-297v323h-363v297zM102 274h1024v-274h-1024v274z" />
    <glyph glyph-name="twosuperior" unicode="&#xb2;" horiz-adv-x="721" 
d="M86 1034l269.999 200.997c14.667 11.333 25.834 21.5 33.501 30.5s13.334 17.167 17.001 24.5s5.83398 13.833 6.50098 19.5s1 10.834 1 15.501c0 11.333 -4.33301 21 -13 29s-21.667 12 -39 12c-13.333 0 -23.833 -2.5 -31.5 -7.5s-13.334 -11 -17.001 -18
s-6 -14 -7 -21s-1.5 -12.5 -1.5 -16.5h-225c-0.666992 47.333 6.5 88.333 21.5 123s35.833 63.334 62.5 86.001s58.167 39.5 94.5 50.5s75.833 16.5 118.5 16.5c33.333 0 66.666 -4.66699 99.999 -14s63.5 -23.666 90.5 -42.999s49 -43.5 66 -72.5s25.5 -63.5 25.5 -103.5
c0 -20 -2.16699 -37.833 -6.5 -53.5s-10.5 -30 -18.5 -43s-17.5 -25 -28.5 -36s-23.167 -22.167 -36.5 -33.5l-159 -133h249v-205h-573v192z" />
    <glyph glyph-name="threesuperior" unicode="&#xb3;" horiz-adv-x="721" 
d="M410 1339c0 12.667 -4.66797 24.6699 -14.001 36.0029s-23.333 17 -42 17c-16.667 0 -31 -5.16699 -43 -15.5s-18 -28.833 -18 -55.5h-219c-1.33301 38 3.66699 73.5 15 106.5s29 61.667 53 86s54.333 43.333 91 57s79.334 20.5 128.001 20.5
c36.667 0 72 -6.16699 106 -18.5s64 -29.166 90 -50.499s46.667 -46.5 62 -75.5s23 -60.167 23 -93.5c0 -30.667 -5.16699 -56.834 -15.5 -78.501s-21.166 -39.167 -32.499 -52.5c12 -10.667 23.167 -23.834 33.5 -39.501s17.666 -32.667 21.999 -51
s6.5 -37.166 6.5 -56.499c0 -32 -7.33301 -63.333 -22 -94s-35.334 -57.834 -62.001 -81.501s-58.167 -42.334 -94.5 -56.001s-75.833 -20.5 -118.5 -20.5c-49.333 0 -92.666 7.16699 -129.999 21.5s-68.666 34 -93.999 59s-44.5 54.5 -57.5 88.5s-19.5 70.667 -19.5 110
h219c0 -16 2.5 -29.667 7.5 -41s12.667 -21 23 -29s25.5 -12 45.5 -12c17.333 0 31 3.16699 41 9.5s17.5 14.5 22.5 24.5s7.5 21 7.5 33c0 19.333 -6.33301 34.166 -19 44.499s-30 15.5 -52 15.5h-99v133h108c13.333 0 24.666 5.33301 33.999 16s14 25 14 43z" />
    <glyph glyph-name="acute" unicode="&#xb4;" horiz-adv-x="680" 
d="M256 1489h326v-25l-306 -286h-235z" />
    <glyph glyph-name="mu" unicode="&#xb5;" horiz-adv-x="1350" 
d="M1183 274l125 -0.000976562v-274h-438v88c-35.333 -32 -76.833 -56.667 -124.5 -74s-102.5 -26 -164.5 -26c-33.333 0 -65 3 -95 9v-468h-332v1507h335v-610c0 -69.333 17.667 -121.166 53 -155.499s81 -51.5 137 -51.5c40 0 76.5 12.5 109.5 37.5
s56.833 58.167 71.5 99.5v680h323v-762z" />
    <glyph glyph-name="paragraph" unicode="&#xb6;" horiz-adv-x="1417" 
d="M436 532c-51.333 14 -99.667 34.668 -145 62.001s-85 61.166 -119 101.499s-61 87 -81 140s-30 112.5 -30 178.5c0 70 14 135.5 42 196.5s67.667 114.167 119 159.5s113.333 81 186 107s153.667 39 243 39h684v-275h-141v-1603h-293v1603h-172v-1603h-293v894z" />
    <glyph glyph-name="periodcentered" unicode="&#xb7;" horiz-adv-x="721" 
d="M201 633c0 24.667 4.5 47.834 13.5 69.501s21.5 40.5 37.5 56.5s34.833 28.667 56.5 38s45.167 14 70.5 14c24 0 46.667 -4.66699 68 -14s40 -22 56 -38s28.667 -34.833 38 -56.5s14 -44.834 14 -69.501s-4.66699 -47.834 -14 -69.501s-22 -40.5 -38 -56.5
s-34.667 -28.667 -56 -38s-44 -14 -68 -14c-25.333 0 -48.833 4.66699 -70.5 14s-40.5 22 -56.5 38s-28.5 34.833 -37.5 56.5s-13.5 44.834 -13.5 69.501z" />
    <glyph glyph-name="cedilla" unicode="&#xb8;" horiz-adv-x="926" 
d="M182 -293c27.333 2 53.167 8.5 77.5 19.5s46.333 26.5 66 46.5s36.667 44.5 51 73.5s24.833 62.5 31.5 100.5l243 -86c-15.333 -52.667 -37 -98.667 -65 -138s-61.333 -72 -100 -98s-81.5 -45.667 -128.5 -59s-97.167 -20.333 -150.5 -21z" />
    <glyph glyph-name="onesuperior" unicode="&#xb9;" horiz-adv-x="539" 
d="M51 1034h131v250l-141 -67v233l238 127h112v-543h121v-194h-461v194z" />
    <glyph glyph-name="ordmasculine" unicode="&#xba;" horiz-adv-x="883" 
d="M61 1210c0 48.667 9.49512 95.167 28.4951 139.5s45.333 83.333 79 117s73.834 60.5 120.501 80.5s97.667 30 153 30c54.667 0 105.334 -10 152.001 -30s86.667 -47 120 -81s59.5 -73.167 78.5 -117.5s28.5 -90.5 28.5 -138.5c0 -48.667 -9.16699 -95.167 -27.5 -139.5
s-44.166 -83.5 -77.499 -117.5s-73.166 -61 -119.499 -81s-97.833 -30 -154.5 -30c-57.333 0 -109.333 10 -156 30s-86.667 47 -120 81s-59.166 73.167 -77.499 117.5s-27.5 90.833 -27.5 139.5zM286.995 1210c0 -16.667 4 -33.334 12 -50.001s19 -31.5 33 -44.5
s30.5 -23.667 49.5 -32s39.167 -12.5 60.5 -12.5s41.333 4.16699 60 12.5s34.834 19 48.501 32s24.334 27.833 32.001 44.5s11.5 33.334 11.5 50.001c0 18.667 -3.83301 36.167 -11.5 52.5s-18.334 30.666 -32.001 42.999s-29.834 22.166 -48.501 29.499s-38.667 11 -60 11
s-41.5 -3.66699 -60.5 -11s-35.5 -17.166 -49.5 -29.499s-25 -26.666 -33 -42.999s-12 -33.833 -12 -52.5z" />
    <glyph glyph-name="guillemotright" unicode="&#xbb;" horiz-adv-x="1100" 
d="M244 630l-211 406h223l260 -369v-74l-256 -370h-229zM684 630l-211 406h223l260 -369v-74l-256 -370h-229z" />
    <glyph glyph-name="onequarter" unicode="&#xbc;" horiz-adv-x="2350" 
d="M1660 1577h256l-1245 -1638h-262zM448 1034h131v250l-141 -67v233l238 127h112v-543h121v-194h-461v194zM1412 348l280 416h215l-282 -422h168v166h202v-166h105v-160h-105v-182h-202v182h-379z" />
    <glyph glyph-name="onehalf" unicode="&#xbd;" horiz-adv-x="2446" 
d="M504 1034h131v250l-141 -67v233l238 127h112v-543h121v-194h-461v194zM1716 1577h256l-1245 -1638h-262zM1491 190l269.999 200.997c14.667 11.333 25.834 21.5 33.501 30.5s13.334 17.167 17.001 24.5s5.83398 13.833 6.50098 19.5s1 10.834 1 15.501
c0 11.333 -4.33301 21 -13 29s-21.667 12 -39 12c-13.333 0 -23.833 -2.5 -31.5 -7.5s-13.334 -11 -17.001 -18s-6 -14 -7 -21s-1.5 -12.5 -1.5 -16.5h-225c-0.666992 47.333 6.5 88.333 21.5 123s35.833 63.334 62.5 86.001s58.167 39.5 94.5 50.5s75.833 16.5 118.5 16.5
c33.333 0 66.666 -4.66699 99.999 -14s63.5 -23.666 90.5 -42.999s49 -43.5 66 -72.5s25.5 -63.5 25.5 -103.5c0 -20 -2.16699 -37.833 -6.5 -53.5s-10.5 -30 -18.5 -43s-17.5 -25 -28.5 -36s-23.167 -22.167 -36.5 -33.5l-159 -133h249v-205h-573v192z" />
    <glyph glyph-name="threequarters" unicode="&#xbe;" horiz-adv-x="2266" 
d="M1576 1577h256l-1245 -1638h-262zM1328 348l280 416h215l-282 -422h168v166h202v-166h105v-160h-105v-182h-202v182h-379zM642 1339c0 12.667 -4.66797 24.6699 -14.001 36.0029s-23.333 17 -42 17c-16.667 0 -31 -5.16699 -43 -15.5s-18 -28.833 -18 -55.5h-219
c-1.33301 38 3.66699 73.5 15 106.5s29 61.667 53 86s54.333 43.333 91 57s79.334 20.5 128.001 20.5c36.667 0 72 -6.16699 106 -18.5s64 -29.166 90 -50.499s46.667 -46.5 62 -75.5s23 -60.167 23 -93.5c0 -30.667 -5.16699 -56.834 -15.5 -78.501
s-21.166 -39.167 -32.499 -52.5c12 -10.667 23.167 -23.834 33.5 -39.501s17.666 -32.667 21.999 -51s6.5 -37.166 6.5 -56.499c0 -32 -7.33301 -63.333 -22 -94s-35.334 -57.834 -62.001 -81.501s-58.167 -42.334 -94.5 -56.001s-75.833 -20.5 -118.5 -20.5
c-49.333 0 -92.666 7.16699 -129.999 21.5s-68.666 34 -93.999 59s-44.5 54.5 -57.5 88.5s-19.5 70.667 -19.5 110h219c0 -16 2.5 -29.667 7.5 -41s12.667 -21 23 -29s25.5 -12 45.5 -12c17.333 0 31 3.16699 41 9.5s17.5 14.5 22.5 24.5s7.5 21 7.5 33
c0 19.333 -6.33301 34.166 -19 44.499s-30 15.5 -52 15.5h-99v133h108c13.333 0 24.666 5.33301 33.999 16s14 25 14 43z" />
    <glyph glyph-name="questiondown" unicode="&#xbf;" horiz-adv-x="1100" 
d="M380 964c0 24.667 4.5 47.834 13.5 69.501s21.5 40.5 37.5 56.5s34.833 28.667 56.5 38s45.167 14 70.5 14c24 0 46.667 -4.66699 68 -14s40 -22 56 -38s28.667 -34.833 38 -56.5s14 -44.834 14 -69.501s-4.66699 -47.834 -14 -69.501s-22 -40.5 -38 -56.5
s-34.667 -28.667 -56 -38s-44 -14 -68 -14c-25.333 0 -48.833 4.66699 -70.5 14s-40.5 22 -56.5 38s-28.5 34.833 -37.5 56.5s-13.5 44.834 -13.5 69.501zM748 709c0 -46.667 -0.671875 -87.667 -2.00488 -123s-4.16602 -66.833 -8.49902 -94.5
s-10.666 -52.334 -18.999 -74.001s-19.333 -41.834 -33 -60.501s-30.667 -36.834 -51 -54.501s-44.5 -36.5 -72.5 -56.5c-30.667 -25.333 -56 -48.5 -76 -69.5s-35.667 -41.833 -47 -62.5s-19.333 -42 -24 -64s-7 -46.667 -7 -74c0 -39.333 9.83301 -71.333 29.5 -96
s46.167 -37 79.5 -37c20.667 0 39.834 2.33301 57.501 7s33.167 13.334 46.5 26.001s23.833 30 31.5 52s11.5 50.333 11.5 85l318 -31c-1.33301 -73.333 -14.166 -137.166 -38.499 -191.499s-57.666 -99.5 -99.999 -135.5s-92.333 -62.833 -150 -80.5
s-120.5 -26.5 -188.5 -26.5c-63.333 0 -122.666 9.33301 -177.999 28s-103.5 46.334 -144.5 83.001s-73.333 81.667 -97 135s-35.5 114.666 -35.5 183.999c0 72.667 16.667 139.334 50 200.001s84.333 118 153 172c35.333 25.333 64.666 49 87.999 71s42 46 56 72
s23.833 56 29.5 90s8.5 76 8.5 126h313z" />
    <glyph glyph-name="Agrave" unicode="&#xc0;" horiz-adv-x="1491" 
d="M893 274h151l-68 218h-466l-68 -218h160v-274h-575v274h113l413 1242h401l404 -1242h110v-274h-575v274zM589 748h306l-154 493zM777 1658l-293 286v25h326l196 -311h-229z" />
    <glyph glyph-name="Aacute" unicode="&#xc1;" horiz-adv-x="1491" 
d="M893 274h151l-68 218h-466l-68 -218h160v-274h-575v274h113l413 1242h401l404 -1242h110v-274h-575v274zM589 748h306l-154 493zM690 1969h326v-25l-306 -286h-235z" />
    <glyph glyph-name="Acircumflex" unicode="&#xc2;" horiz-adv-x="1491" 
d="M893 274h151l-68 218h-466l-68 -218h160v-274h-575v274h113l413 1242h401l404 -1242h110v-274h-575v274zM589 748h306l-154 493zM352 1656l272 325h240l274 -325h-245l-148 153l-145 -153h-248z" />
    <glyph glyph-name="Atilde" unicode="&#xc3;" horiz-adv-x="1491" 
d="M893 274h151l-68 218h-466l-68 -218h160v-274h-575v274h113l413 1242h401l404 -1242h110v-274h-575v274zM589 748h306l-154 493zM592 1959c28 0 55.002 -4.83203 81.002 -14.499s51.5 -20.334 76.5 -32.001s49.333 -22.334 73 -32.001s47.167 -14.5 70.5 -14.5
c28 0 52.833 5 74.5 15s41.167 27.667 58.5 53l158 -70c-10 -30 -24.167 -58 -42.5 -84s-39.5 -48.833 -63.5 -68.5s-50.333 -35 -79 -46s-58.667 -16.5 -90 -16.5c-34.667 0 -66 4.5 -94 13.5s-54.5 19 -79.5 30s-49.5 21.167 -73.5 30.5s-49.333 14 -76 14
c-30 0 -55.333 -6.16699 -76 -18.5s-37.667 -27.166 -51 -44.499l-152 70c9.33301 36 25.166 67.333 47.499 94s47.166 49 74.499 67s55.5 31.5 84.5 40.5s55.167 13.5 78.5 13.5z" />
    <glyph glyph-name="Adieresis" unicode="&#xc4;" horiz-adv-x="1491" 
d="M893 274h151l-68 218h-466l-68 -218h160v-274h-575v274h113l413 1242h401l404 -1242h110v-274h-575v274zM589 748h306l-154 493zM328 1823c0 24.667 4.5 47.834 13.5 69.501s21.5 40.667 37.5 57s34.833 29.166 56.5 38.499s45.167 14 70.5 14
c24 0 46.667 -4.66699 68 -14s40 -22.166 56 -38.499s28.667 -35.333 38 -57s14 -44.834 14 -69.501s-4.66699 -47.834 -14 -69.501s-22 -40.5 -38 -56.5s-34.667 -28.667 -56 -38s-44 -14 -68 -14c-25.333 0 -48.833 4.66699 -70.5 14s-40.5 22 -56.5 38
s-28.5 34.833 -37.5 56.5s-13.5 44.834 -13.5 69.501zM807 1823c0 24.667 4.66699 47.834 14 69.501s22 40.667 38 57s34.833 29.166 56.5 38.499s45.167 14 70.5 14c24 0 46.667 -4.66699 68 -14s40 -22.166 56 -38.499s28.667 -35.333 38 -57s14 -44.834 14 -69.501
s-4.66699 -47.834 -14 -69.501s-22 -40.5 -38 -56.5s-34.667 -28.667 -56 -38s-44 -14 -68 -14c-25.333 0 -48.833 4.66699 -70.5 14s-40.5 22 -56.5 38s-28.667 34.833 -38 56.5s-14 44.834 -14 69.501z" />
    <glyph glyph-name="Aring" unicode="&#xc5;" horiz-adv-x="1491" 
d="M893 274h151l-68 218h-466l-68 -218h160v-274h-575v274h113l413 1242h401l404 -1242h110v-274h-575v274zM589 748h306l-154 493zM745 2026c43.333 0 84.333 -8.33301 123 -25s72.5 -39.334 101.5 -68.001s51.833 -62.334 68.5 -101.001s25 -79.667 25 -123
s-8.33301 -84.333 -25 -123s-39.5 -72.5 -68.5 -101.5s-62.833 -51.833 -101.5 -68.5s-79.667 -25 -123 -25s-84.333 8.33301 -123 25s-72.334 39.5 -101.001 68.5s-51.334 62.833 -68.001 101.5s-25 79.667 -25 123s8.33301 84.333 25 123s39.334 72.334 68.001 101.001
s62.334 51.334 101.001 68.001s79.667 25 123 25zM620 1709c0 -17.333 3.33301 -33.666 10 -48.999s15.667 -28.666 27 -39.999s24.5 -20.166 39.5 -26.499s31.167 -9.5 48.5 -9.5s33.5 3.16699 48.5 9.5s28 15.166 39 26.499s19.667 24.666 26 39.999
s9.5 31.666 9.5 48.999s-3.16699 33.5 -9.5 48.5s-15 28 -26 39s-24 19.667 -39 26s-31.167 9.5 -48.5 9.5s-33.5 -3.16699 -48.5 -9.5s-28.167 -15 -39.5 -26s-20.333 -24 -27 -39s-10 -31.167 -10 -48.5z" />
    <glyph glyph-name="AE" unicode="&#xc6;" horiz-adv-x="2093" 
d="M-34 274h126l791 1242h1149v-517h-326v215h-370v-305h290v-274h-290v-361h370v269h326v-543h-1149v274h121v138h-497l-83 -138h116v-274h-574v274zM671 686h333v568z" />
    <glyph glyph-name="Ccedilla" unicode="&#xc7;" horiz-adv-x="1554" 
d="M1106 1055c-37.333 53.333 -71.0039 91.168 -101.004 113.501s-62.333 38.333 -97 48s-71 14.5 -109 14.5c-56 0 -108 -12.5 -156 -37.5s-89.5 -59 -124.5 -102s-62.5 -93 -82.5 -150s-30 -117.5 -30 -181.5c0 -64.667 9.83301 -125.5 29.5 -182.5
s46.834 -106.833 81.501 -149.5s76 -76.5 124 -101.5s100.667 -37.5 158 -37.5c40 0 77.333 6.5 112 19.5s66.167 30.167 94.5 51.5s53.166 45.833 74.499 73.5s38 56.5 50 86.5l322 -90c-20.667 -65.333 -51 -125.833 -91 -181.5s-88.167 -103.834 -144.5 -144.501
s-119.666 -72.667 -189.999 -96s-146.166 -35 -227.499 -35c-68.667 0 -134.334 9.33301 -197.001 28s-121.167 45 -175.5 79s-103.666 75 -147.999 123s-82.166 101.167 -113.499 159.5s-55.666 121 -72.999 188s-26 136.833 -26 209.5c0 108.667 19 210.5 57 305.5
s90 178 156 249s143.5 127 232.5 168s184.833 61.5 287.5 61.5c82 0 151 -10.167 207 -30.5s117.667 -60.5 185 -120.5h224v-338h-309zM541.996 -292.998c27.333 2 53.167 8.5 77.5 19.5s46.333 26.5 66 46.5s36.667 44.5 51 73.5s24.833 62.5 31.5 100.5l243 -86
c-15.333 -52.667 -37 -98.667 -65 -138s-61.333 -72 -100 -98s-81.5 -45.667 -128.5 -59s-97.167 -20.333 -150.5 -21z" />
    <glyph glyph-name="Egrave" unicode="&#xc8;" horiz-adv-x="1380" 
d="M113 1516h1206v-517h-326v215h-389v-299h301v-290h-301v-351h389v269h326v-543h-1206v274h159v940h-159v302zM722 1658l-293 286v25h326l196 -311h-229z" />
    <glyph glyph-name="Eacute" unicode="&#xc9;" horiz-adv-x="1380" 
d="M113 1516h1206v-517h-326v215h-389v-299h301v-290h-301v-351h389v269h326v-543h-1206v274h159v940h-159v302zM634 1969h326v-25l-306 -286h-235z" />
    <glyph glyph-name="Ecircumflex" unicode="&#xca;" horiz-adv-x="1380" 
d="M113 1516h1206v-517h-326v215h-389v-299h301v-290h-301v-351h389v269h326v-543h-1206v274h159v940h-159v302zM297 1656l272 325h240l274 -325h-245l-148 153l-145 -153h-248z" />
    <glyph glyph-name="Edieresis" unicode="&#xcb;" horiz-adv-x="1380" 
d="M113 1516h1206v-517h-326v215h-389v-299h301v-290h-301v-351h389v269h326v-543h-1206v274h159v940h-159v302zM273 1823c0 24.667 4.5 47.834 13.5 69.501s21.5 40.667 37.5 57s34.833 29.166 56.5 38.499s45.167 14 70.5 14c24 0 46.667 -4.66699 68 -14
s40 -22.166 56 -38.499s28.667 -35.333 38 -57s14 -44.834 14 -69.501s-4.66699 -47.834 -14 -69.501s-22 -40.5 -38 -56.5s-34.667 -28.667 -56 -38s-44 -14 -68 -14c-25.333 0 -48.833 4.66699 -70.5 14s-40.5 22 -56.5 38s-28.5 34.833 -37.5 56.5
s-13.5 44.834 -13.5 69.501zM752 1823c0 24.667 4.66699 47.834 14 69.501s22 40.667 38 57s34.833 29.166 56.5 38.499s45.167 14 70.5 14c24 0 46.667 -4.66699 68 -14s40 -22.166 56 -38.499s28.667 -35.333 38 -57s14 -44.834 14 -69.501s-4.66699 -47.834 -14 -69.501
s-22 -40.5 -38 -56.5s-34.667 -28.667 -56 -38s-44 -14 -68 -14c-25.333 0 -48.833 4.66699 -70.5 14s-40.5 22 -56.5 38s-28.667 34.833 -38 56.5s-14 44.834 -14 69.501z" />
    <glyph glyph-name="Igrave" unicode="&#xcc;" horiz-adv-x="810" 
d="M113 1516h649v-274h-160v-968h160v-274h-649v274h157v968h-157v274zM438 1658l-293 286v25h326l196 -311h-229z" />
    <glyph glyph-name="Iacute" unicode="&#xcd;" horiz-adv-x="810" 
d="M113 1516h649v-274h-160v-968h160v-274h-649v274h157v968h-157v274zM349 1969h326v-25l-306 -286h-235z" />
    <glyph glyph-name="Icircumflex" unicode="&#xce;" horiz-adv-x="810" 
d="M113 1516h649v-274h-160v-968h160v-274h-649v274h157v968h-157v274zM13 1656l272 325h240l274 -325h-245l-148 153l-145 -153h-248z" />
    <glyph glyph-name="Idieresis" unicode="&#xcf;" horiz-adv-x="810" 
d="M113 1516h649v-274h-160v-968h160v-274h-649v274h157v968h-157v274zM-11 1823c0 24.667 4.5 47.834 13.5 69.501s21.5 40.667 37.5 57s34.833 29.166 56.5 38.499s45.167 14 70.5 14c24 0 46.667 -4.66699 68 -14s40 -22.166 56 -38.499s28.667 -35.333 38 -57
s14 -44.834 14 -69.501s-4.66699 -47.834 -14 -69.501s-22 -40.5 -38 -56.5s-34.667 -28.667 -56 -38s-44 -14 -68 -14c-25.333 0 -48.833 4.66699 -70.5 14s-40.5 22 -56.5 38s-28.5 34.833 -37.5 56.5s-13.5 44.834 -13.5 69.501zM468 1823
c0 24.667 4.66699 47.834 14 69.501s22 40.667 38 57s34.833 29.166 56.5 38.499s45.167 14 70.5 14c24 0 46.667 -4.66699 68 -14s40 -22.166 56 -38.499s28.667 -35.333 38 -57s14 -44.834 14 -69.501s-4.66699 -47.834 -14 -69.501s-22 -40.5 -38 -56.5
s-34.667 -28.667 -56 -38s-44 -14 -68 -14c-25.333 0 -48.833 4.66699 -70.5 14s-40.5 22 -56.5 38s-28.667 34.833 -38 56.5s-14 44.834 -14 69.501z" />
    <glyph glyph-name="Eth" unicode="&#xd0;" horiz-adv-x="1468" 
d="M82 1516h582c69.333 0 135.833 -9 199.5 -27s123 -43.333 178 -76s105 -71.834 150 -117.501s83.5 -96.5 115.5 -152.5s56.667 -116.333 74 -181s26 -132 26 -202s-8.66699 -137.333 -26 -202s-42 -125.167 -74 -181.5s-70.5 -107.666 -115.5 -153.999s-95 -86 -150 -119
s-114.333 -58.5 -178 -76.5s-130.167 -27 -199.5 -27h-582v274h121v347h-138v274h138v346h-121v275zM535 621v-347h127c54 0 105 12.667 153 38s89.667 59.833 125 103.5s63.333 95 84 154s31 122.5 31 190.5c0 67.333 -10.333 130.333 -31 189s-48.667 109.667 -84 153
s-77 77.333 -125 102s-99 37 -153 37h-127v-346h157v-274h-157z" />
    <glyph glyph-name="Ntilde" unicode="&#xd1;" horiz-adv-x="1698" 
d="M1071 1516h576v-275h-123v-1241h-332l-631 980v-706h127v-274h-575v274h125v967h-123v275h458l627 -993v718h-129v275zM695 1959c28 0 55.002 -4.83203 81.002 -14.499s51.5 -20.334 76.5 -32.001s49.333 -22.334 73 -32.001s47.167 -14.5 70.5 -14.5
c28 0 52.833 5 74.5 15s41.167 27.667 58.5 53l158 -70c-10 -30 -24.167 -58 -42.5 -84s-39.5 -48.833 -63.5 -68.5s-50.333 -35 -79 -46s-58.667 -16.5 -90 -16.5c-34.667 0 -66 4.5 -94 13.5s-54.5 19 -79.5 30s-49.5 21.167 -73.5 30.5s-49.333 14 -76 14
c-30 0 -55.333 -6.16699 -76 -18.5s-37.667 -27.166 -51 -44.499l-152 70c9.33301 36 25.166 67.333 47.499 94s47.166 49 74.499 67s55.5 31.5 84.5 40.5s55.167 13.5 78.5 13.5z" />
    <glyph glyph-name="Ograve" unicode="&#xd2;" horiz-adv-x="1620" 
d="M799 -27c-68.667 0 -134.334 9.33203 -197.001 27.999s-121.167 45 -175.5 79s-103.666 74.833 -147.999 122.5s-82.166 100.667 -113.499 159s-55.666 120.833 -72.999 187.5s-26 136.334 -26 209.001s8.66699 142.5 26 209.5s41.666 129.667 72.999 188
s69.166 111.333 113.499 159s93.666 88.5 147.999 122.5s112.833 60.333 175.5 79s128.334 28 197.001 28s134.5 -9.33301 197.5 -28s121.667 -45 176 -79s103.666 -74.833 147.999 -122.5s82.333 -100.667 114 -159s56.167 -121 73.5 -188s26 -136.833 26 -209.5
c0 -72 -8.66699 -141.5 -26 -208.5s-41.833 -129.667 -73.5 -188s-69.667 -111.333 -114 -159s-93.666 -88.5 -147.999 -122.5s-113 -60.333 -176 -79s-128.833 -28 -197.5 -28zM799 286.999c58 0 111.167 12.5 159.5 37.5s89.833 59 124.5 102s61.5 93 80.5 150
s28.5 117.5 28.5 181.5c0 64.667 -9.66699 125.667 -29 183s-46.5 107.5 -81.5 150.5s-76.5 77 -124.5 102s-100.667 37.5 -158 37.5s-110 -12.5 -158 -37.5s-89.333 -59 -124 -102s-61.834 -93.167 -81.501 -150.5s-29.5 -118.333 -29.5 -183
c0 -64 9.83301 -124.5 29.5 -181.5s46.834 -107 81.501 -150s76 -77 124 -102s100.667 -37.5 158 -37.5zM831 1658l-293 286v25h326l196 -311h-229z" />
    <glyph glyph-name="Oacute" unicode="&#xd3;" horiz-adv-x="1620" 
d="M799 -27c-68.667 0 -134.334 9.33203 -197.001 27.999s-121.167 45 -175.5 79s-103.666 74.833 -147.999 122.5s-82.166 100.667 -113.499 159s-55.666 120.833 -72.999 187.5s-26 136.334 -26 209.001s8.66699 142.5 26 209.5s41.666 129.667 72.999 188
s69.166 111.333 113.499 159s93.666 88.5 147.999 122.5s112.833 60.333 175.5 79s128.334 28 197.001 28s134.5 -9.33301 197.5 -28s121.667 -45 176 -79s103.666 -74.833 147.999 -122.5s82.333 -100.667 114 -159s56.167 -121 73.5 -188s26 -136.833 26 -209.5
c0 -72 -8.66699 -141.5 -26 -208.5s-41.833 -129.667 -73.5 -188s-69.667 -111.333 -114 -159s-93.666 -88.5 -147.999 -122.5s-113 -60.333 -176 -79s-128.833 -28 -197.5 -28zM799 286.999c58 0 111.167 12.5 159.5 37.5s89.833 59 124.5 102s61.5 93 80.5 150
s28.5 117.5 28.5 181.5c0 64.667 -9.66699 125.667 -29 183s-46.5 107.5 -81.5 150.5s-76.5 77 -124.5 102s-100.667 37.5 -158 37.5s-110 -12.5 -158 -37.5s-89.333 -59 -124 -102s-61.834 -93.167 -81.501 -150.5s-29.5 -118.333 -29.5 -183
c0 -64 9.83301 -124.5 29.5 -181.5s46.834 -107 81.501 -150s76 -77 124 -102s100.667 -37.5 158 -37.5zM744 1969h326v-25l-306 -286h-235z" />
    <glyph glyph-name="Ocircumflex" unicode="&#xd4;" horiz-adv-x="1620" 
d="M799 -27c-68.667 0 -134.334 9.33203 -197.001 27.999s-121.167 45 -175.5 79s-103.666 74.833 -147.999 122.5s-82.166 100.667 -113.499 159s-55.666 120.833 -72.999 187.5s-26 136.334 -26 209.001s8.66699 142.5 26 209.5s41.666 129.667 72.999 188
s69.166 111.333 113.499 159s93.666 88.5 147.999 122.5s112.833 60.333 175.5 79s128.334 28 197.001 28s134.5 -9.33301 197.5 -28s121.667 -45 176 -79s103.666 -74.833 147.999 -122.5s82.333 -100.667 114 -159s56.167 -121 73.5 -188s26 -136.833 26 -209.5
c0 -72 -8.66699 -141.5 -26 -208.5s-41.833 -129.667 -73.5 -188s-69.667 -111.333 -114 -159s-93.666 -88.5 -147.999 -122.5s-113 -60.333 -176 -79s-128.833 -28 -197.5 -28zM799 286.999c58 0 111.167 12.5 159.5 37.5s89.833 59 124.5 102s61.5 93 80.5 150
s28.5 117.5 28.5 181.5c0 64.667 -9.66699 125.667 -29 183s-46.5 107.5 -81.5 150.5s-76.5 77 -124.5 102s-100.667 37.5 -158 37.5s-110 -12.5 -158 -37.5s-89.333 -59 -124 -102s-61.834 -93.167 -81.501 -150.5s-29.5 -118.333 -29.5 -183
c0 -64 9.83301 -124.5 29.5 -181.5s46.834 -107 81.501 -150s76 -77 124 -102s100.667 -37.5 158 -37.5zM406 1656l272 325h240l274 -325h-245l-148 153l-145 -153h-248z" />
    <glyph glyph-name="Otilde" unicode="&#xd5;" horiz-adv-x="1620" 
d="M799 -27c-68.667 0 -134.334 9.33203 -197.001 27.999s-121.167 45 -175.5 79s-103.666 74.833 -147.999 122.5s-82.166 100.667 -113.499 159s-55.666 120.833 -72.999 187.5s-26 136.334 -26 209.001s8.66699 142.5 26 209.5s41.666 129.667 72.999 188
s69.166 111.333 113.499 159s93.666 88.5 147.999 122.5s112.833 60.333 175.5 79s128.334 28 197.001 28s134.5 -9.33301 197.5 -28s121.667 -45 176 -79s103.666 -74.833 147.999 -122.5s82.333 -100.667 114 -159s56.167 -121 73.5 -188s26 -136.833 26 -209.5
c0 -72 -8.66699 -141.5 -26 -208.5s-41.833 -129.667 -73.5 -188s-69.667 -111.333 -114 -159s-93.666 -88.5 -147.999 -122.5s-113 -60.333 -176 -79s-128.833 -28 -197.5 -28zM799 286.999c58 0 111.167 12.5 159.5 37.5s89.833 59 124.5 102s61.5 93 80.5 150
s28.5 117.5 28.5 181.5c0 64.667 -9.66699 125.667 -29 183s-46.5 107.5 -81.5 150.5s-76.5 77 -124.5 102s-100.667 37.5 -158 37.5s-110 -12.5 -158 -37.5s-89.333 -59 -124 -102s-61.834 -93.167 -81.501 -150.5s-29.5 -118.333 -29.5 -183
c0 -64 9.83301 -124.5 29.5 -181.5s46.834 -107 81.501 -150s76 -77 124 -102s100.667 -37.5 158 -37.5zM646 1959c28 0 55.002 -4.83203 81.002 -14.499s51.5 -20.334 76.5 -32.001s49.333 -22.334 73 -32.001s47.167 -14.5 70.5 -14.5c28 0 52.833 5 74.5 15
s41.167 27.667 58.5 53l158 -70c-10 -30 -24.167 -58 -42.5 -84s-39.5 -48.833 -63.5 -68.5s-50.333 -35 -79 -46s-58.667 -16.5 -90 -16.5c-34.667 0 -66 4.5 -94 13.5s-54.5 19 -79.5 30s-49.5 21.167 -73.5 30.5s-49.333 14 -76 14c-30 0 -55.333 -6.16699 -76 -18.5
s-37.667 -27.166 -51 -44.499l-152 70c9.33301 36 25.166 67.333 47.499 94s47.166 49 74.499 67s55.5 31.5 84.5 40.5s55.167 13.5 78.5 13.5z" />
    <glyph glyph-name="Odieresis" unicode="&#xd6;" horiz-adv-x="1620" 
d="M799 -27c-68.667 0 -134.334 9.33203 -197.001 27.999s-121.167 45 -175.5 79s-103.666 74.833 -147.999 122.5s-82.166 100.667 -113.499 159s-55.666 120.833 -72.999 187.5s-26 136.334 -26 209.001s8.66699 142.5 26 209.5s41.666 129.667 72.999 188
s69.166 111.333 113.499 159s93.666 88.5 147.999 122.5s112.833 60.333 175.5 79s128.334 28 197.001 28s134.5 -9.33301 197.5 -28s121.667 -45 176 -79s103.666 -74.833 147.999 -122.5s82.333 -100.667 114 -159s56.167 -121 73.5 -188s26 -136.833 26 -209.5
c0 -72 -8.66699 -141.5 -26 -208.5s-41.833 -129.667 -73.5 -188s-69.667 -111.333 -114 -159s-93.666 -88.5 -147.999 -122.5s-113 -60.333 -176 -79s-128.833 -28 -197.5 -28zM799 286.999c58 0 111.167 12.5 159.5 37.5s89.833 59 124.5 102s61.5 93 80.5 150
s28.5 117.5 28.5 181.5c0 64.667 -9.66699 125.667 -29 183s-46.5 107.5 -81.5 150.5s-76.5 77 -124.5 102s-100.667 37.5 -158 37.5s-110 -12.5 -158 -37.5s-89.333 -59 -124 -102s-61.834 -93.167 -81.501 -150.5s-29.5 -118.333 -29.5 -183
c0 -64 9.83301 -124.5 29.5 -181.5s46.834 -107 81.501 -150s76 -77 124 -102s100.667 -37.5 158 -37.5zM382 1823c0 24.667 4.5 47.834 13.5 69.501s21.5 40.667 37.5 57s34.833 29.166 56.5 38.499s45.167 14 70.5 14c24 0 46.667 -4.66699 68 -14s40 -22.166 56 -38.499
s28.667 -35.333 38 -57s14 -44.834 14 -69.501s-4.66699 -47.834 -14 -69.501s-22 -40.5 -38 -56.5s-34.667 -28.667 -56 -38s-44 -14 -68 -14c-25.333 0 -48.833 4.66699 -70.5 14s-40.5 22 -56.5 38s-28.5 34.833 -37.5 56.5s-13.5 44.834 -13.5 69.501zM861 1823
c0 24.667 4.66699 47.834 14 69.501s22 40.667 38 57s34.833 29.166 56.5 38.499s45.167 14 70.5 14c24 0 46.667 -4.66699 68 -14s40 -22.166 56 -38.499s28.667 -35.333 38 -57s14 -44.834 14 -69.501s-4.66699 -47.834 -14 -69.501s-22 -40.5 -38 -56.5
s-34.667 -28.667 -56 -38s-44 -14 -68 -14c-25.333 0 -48.833 4.66699 -70.5 14s-40.5 22 -56.5 38s-28.667 34.833 -38 56.5s-14 44.834 -14 69.501z" />
    <glyph glyph-name="multiply" unicode="&#xd7;" horiz-adv-x="1239" 
d="M417 666l-356 387l222 200l336 -366l337 366l222 -200l-356 -387l343 -373l-221 -199l-325 352l-324 -352l-221 199z" />
    <glyph glyph-name="Oslash" unicode="&#xd8;" horiz-adv-x="1591" 
d="M256 229c-60 70 -106.666 150.002 -139.999 240.002s-50 186.333 -50 289c0 72.667 8.66699 142.5 26 209.5s41.666 129.667 72.999 188s69.166 111.333 113.499 159s93.666 88.5 147.999 122.5s112.833 60.333 175.5 79s128.334 28 197.001 28
c70 0 136.5 -9.66699 199.5 -29s122.167 -46.333 177.5 -81l130 170h256l-230 -303c62.667 -70.667 112 -152.334 148 -245.001s54 -192 54 -298c0 -72 -8.66699 -141.5 -26 -208.5s-41.833 -129.667 -73.5 -188s-69.667 -111.333 -114 -159s-93.666 -88.5 -147.999 -122.5
s-113 -60.333 -176 -79s-128.833 -28 -197.5 -28c-72 0 -140.5 10.167 -205.5 30.5s-125.833 49.166 -182.5 86.499l-94 -124h-262zM799.001 287.002c58 0 111.167 12.499 159.5 37.499s89.833 59 124.5 102s61.5 93 80.5 150s28.5 117.5 28.5 181.5
c0 50 -6 97.833 -18 143.5s-28.667 87.834 -50 126.501l-519 -683c28 -18.667 58.333 -33 91 -43s67 -15 103 -15zM406.001 758.001c0 -46.667 5.16797 -91.5 15.501 -134.5s25.166 -82.833 44.499 -119.5l516 675c-27.333 16.667 -56.166 29.5 -86.499 38.5
s-62.5 13.5 -96.5 13.5c-57.333 0 -110 -12.5 -158 -37.5s-89.333 -59 -124 -102s-61.834 -93.167 -81.501 -150.5s-29.5 -118.333 -29.5 -183z" />
    <glyph glyph-name="Ugrave" unicode="&#xd9;" horiz-adv-x="1561" 
d="M51 1516h608.002v-275h-139v-629c0 -57.333 6.5 -106 19.5 -146s31.167 -72.667 54.5 -98s51 -43.833 83 -55.5s67 -17.5 105 -17.5c39.333 0 75.166 5 107.499 15s60 27.167 83 51.5s40.667 56.833 53 97.5s18.5 91.667 18.5 153v629h-161v275h608v-275h-121v-590
c0 -106.667 -15.333 -201.5 -46 -284.5s-72.834 -153.167 -126.501 -210.5s-116.667 -101 -189 -131s-149.833 -45 -232.5 -45c-82 0 -158.667 14.833 -230 44.5s-133.5 72.667 -186.5 129s-94.833 124.833 -125.5 205.5s-46 172 -46 274v608h-137v275zM812.002 1658
l-293 286v25h326l196 -311h-229z" />
    <glyph glyph-name="Uacute" unicode="&#xda;" horiz-adv-x="1561" 
d="M51 1516h608.002v-275h-139v-629c0 -57.333 6.5 -106 19.5 -146s31.167 -72.667 54.5 -98s51 -43.833 83 -55.5s67 -17.5 105 -17.5c39.333 0 75.166 5 107.499 15s60 27.167 83 51.5s40.667 56.833 53 97.5s18.5 91.667 18.5 153v629h-161v275h608v-275h-121v-590
c0 -106.667 -15.333 -201.5 -46 -284.5s-72.834 -153.167 -126.501 -210.5s-116.667 -101 -189 -131s-149.833 -45 -232.5 -45c-82 0 -158.667 14.833 -230 44.5s-133.5 72.667 -186.5 129s-94.833 124.833 -125.5 205.5s-46 172 -46 274v608h-137v275zM725.002 1969h326
v-25l-306 -286h-235z" />
    <glyph glyph-name="Ucircumflex" unicode="&#xdb;" horiz-adv-x="1561" 
d="M51 1516h608.002v-275h-139v-629c0 -57.333 6.5 -106 19.5 -146s31.167 -72.667 54.5 -98s51 -43.833 83 -55.5s67 -17.5 105 -17.5c39.333 0 75.166 5 107.499 15s60 27.167 83 51.5s40.667 56.833 53 97.5s18.5 91.667 18.5 153v629h-161v275h608v-275h-121v-590
c0 -106.667 -15.333 -201.5 -46 -284.5s-72.834 -153.167 -126.501 -210.5s-116.667 -101 -189 -131s-149.833 -45 -232.5 -45c-82 0 -158.667 14.833 -230 44.5s-133.5 72.667 -186.5 129s-94.833 124.833 -125.5 205.5s-46 172 -46 274v608h-137v275zM387.002 1656
l272 325h240l274 -325h-245l-148 153l-145 -153h-248z" />
    <glyph glyph-name="Udieresis" unicode="&#xdc;" horiz-adv-x="1561" 
d="M51 1516h608.002v-275h-139v-629c0 -57.333 6.5 -106 19.5 -146s31.167 -72.667 54.5 -98s51 -43.833 83 -55.5s67 -17.5 105 -17.5c39.333 0 75.166 5 107.499 15s60 27.167 83 51.5s40.667 56.833 53 97.5s18.5 91.667 18.5 153v629h-161v275h608v-275h-121v-590
c0 -106.667 -15.333 -201.5 -46 -284.5s-72.834 -153.167 -126.501 -210.5s-116.667 -101 -189 -131s-149.833 -45 -232.5 -45c-82 0 -158.667 14.833 -230 44.5s-133.5 72.667 -186.5 129s-94.833 124.833 -125.5 205.5s-46 172 -46 274v608h-137v275zM363.002 1823
c0 24.667 4.5 47.834 13.5 69.501s21.5 40.667 37.5 57s34.833 29.166 56.5 38.499s45.167 14 70.5 14c24 0 46.667 -4.66699 68 -14s40 -22.166 56 -38.499s28.667 -35.333 38 -57s14 -44.834 14 -69.501s-4.66699 -47.834 -14 -69.501s-22 -40.5 -38 -56.5
s-34.667 -28.667 -56 -38s-44 -14 -68 -14c-25.333 0 -48.833 4.66699 -70.5 14s-40.5 22 -56.5 38s-28.5 34.833 -37.5 56.5s-13.5 44.834 -13.5 69.501zM842.002 1823c0 24.667 4.66699 47.834 14 69.501s22 40.667 38 57s34.833 29.166 56.5 38.499s45.167 14 70.5 14
c24 0 46.667 -4.66699 68 -14s40 -22.166 56 -38.499s28.667 -35.333 38 -57s14 -44.834 14 -69.501s-4.66699 -47.834 -14 -69.501s-22 -40.5 -38 -56.5s-34.667 -28.667 -56 -38s-44 -14 -68 -14c-25.333 0 -48.833 4.66699 -70.5 14s-40.5 22 -56.5 38
s-28.667 34.833 -38 56.5s-14 44.834 -14 69.501z" />
    <glyph glyph-name="Yacute" unicode="&#xdd;" horiz-adv-x="1536" 
d="M47 1516h649v-275h-127l203 -348l215 348h-145v275h649v-275h-112l-451 -612v-355h184v-274h-676v274h168v359l-424 608h-133v275zM712 1969h326v-25l-306 -286h-235z" />
    <glyph glyph-name="Thorn" unicode="&#xde;" horiz-adv-x="1450" 
d="M112 1516l649.001 -0.00195312v-275h-158v-47h210c78 0 149.667 -11.167 215 -33.5s121.666 -53.166 168.999 -92.499s84.333 -85.666 111 -138.999s40 -111 40 -173c0 -56.667 -10.5 -111 -31.5 -163s-53.5 -98 -97.5 -138s-99.667 -71.833 -167 -95.5
s-147 -35.5 -239 -35.5h-210v-50h158v-274h-649v274h159v967h-159v275zM603.001 919.998v-326h136c76 0 136.333 12.833 181 38.5s67 66.167 67 121.5c0 52 -21 92.667 -63 122s-103.667 44 -185 44h-136z" />
    <glyph glyph-name="germandbls" unicode="&#xdf;" horiz-adv-x="1354" 
d="M682 979l71.998 -0.00390625c24.667 0.666992 44.334 6.16699 59.001 16.5s27.167 22.833 37.5 37.5s18.333 30.5 24 47.5s8.5 32.833 8.5 47.5c0 52.667 -15.5 95.334 -46.5 128.001s-74.167 49 -129.5 49c-24 0 -45.833 -4.16699 -65.5 -12.5s-36.5 -20.333 -50.5 -36
s-24.833 -34.5 -32.5 -56.5s-11.5 -46.667 -11.5 -74v-1124h-37v-2h-473v274h207v908c0 46.667 10.333 93.667 31 141s50.667 90 90 128s87.666 68.833 144.999 92.5s123 35.5 197 35.5c71.333 0 135.833 -10.833 193.5 -32.5s106.667 -51.167 147 -88.5
s71.5 -80.833 93.5 -130.5s33 -102.5 33 -158.5c0 -33.333 -2.83301 -63.666 -8.5 -90.999s-13.5 -52.166 -23.5 -74.499s-21.5 -42.166 -34.5 -59.499s-26.833 -32.666 -41.5 -45.999c70 -42.667 124.5 -98.667 163.5 -168s58.5 -148 58.5 -236
c0 -85.333 -13.667 -159.666 -41 -222.999s-64.833 -116 -112.5 -158s-104 -73.333 -169 -94s-135.5 -31 -211.5 -31c-13.333 0 -25.666 0.5 -36.999 1.5s-23.666 2.5 -36.999 4.5l14 276c10.667 -2 20 -3.16699 28 -3.5s17.333 -0.5 28 -0.5c30 0 58 5.5 84 16.5
s48.5 26.167 67.5 45.5s34 42.166 45 68.499s16.5 55.166 16.5 86.499c0 29.333 -5.5 56.833 -16.5 82.5s-26 48 -45 67s-41.333 34 -67 45s-53.167 16.5 -82.5 16.5h-68z" />
    <glyph glyph-name="agrave" unicode="&#xe0;" horiz-adv-x="1280" 
d="M717 56c-23.333 -14.667 -44.6641 -27.1699 -63.9971 -37.5029s-38.666 -18.666 -57.999 -24.999s-39.333 -11 -60 -14s-43.334 -4.5 -68.001 -4.5c-62 0 -117.5 8.5 -166.5 25.5s-90.333 40.333 -124 70s-59.5 64.667 -77.5 105s-27 84.166 -27 131.499
c0 48 9.16699 92.333 27.5 133s44.833 75.5 79.5 104.5s77.167 51.667 127.5 68s107.833 24.5 172.5 24.5c47.333 0 90.5 -2.5 129.5 -7.5s75.167 -11.167 108.5 -18.5v32c0 26 -5 48.5 -15 67.5s-24 34.667 -42 47s-39.667 21.333 -65 27s-53 8.5 -83 8.5
c-62.667 0 -117.834 -6.16699 -165.501 -18.5s-93.5 -30.166 -137.5 -53.499l-96 194c68 46.667 139.167 82.334 213.5 107.001s153.166 37 236.499 37c64.667 0 124.5 -7.16699 179.5 -21.5s102.167 -37.666 141.5 -69.999s70.166 -74.5 92.499 -126.5
s33.5 -115.333 33.5 -190v-377h139v-274h-432v56zM489.002 210.997c47.333 0 90.335 7.6709 129.002 23.0039s71.667 34 99 56v132h-240c-15.333 0 -30.333 -2.33301 -45 -7s-27.834 -11.334 -39.501 -20.001s-21 -19.334 -28 -32.001s-10.5 -27.334 -10.5 -44.001
c0 -30.667 11.167 -56.334 33.5 -77.001s56.166 -31 101.499 -31zM662.004 1178l-293 286v25h326l196 -311h-229z" />
    <glyph glyph-name="aacute" unicode="&#xe1;" horiz-adv-x="1280" 
d="M717 56c-23.333 -14.667 -44.6641 -27.1699 -63.9971 -37.5029s-38.666 -18.666 -57.999 -24.999s-39.333 -11 -60 -14s-43.334 -4.5 -68.001 -4.5c-62 0 -117.5 8.5 -166.5 25.5s-90.333 40.333 -124 70s-59.5 64.667 -77.5 105s-27 84.166 -27 131.499
c0 48 9.16699 92.333 27.5 133s44.833 75.5 79.5 104.5s77.167 51.667 127.5 68s107.833 24.5 172.5 24.5c47.333 0 90.5 -2.5 129.5 -7.5s75.167 -11.167 108.5 -18.5v32c0 26 -5 48.5 -15 67.5s-24 34.667 -42 47s-39.667 21.333 -65 27s-53 8.5 -83 8.5
c-62.667 0 -117.834 -6.16699 -165.501 -18.5s-93.5 -30.166 -137.5 -53.499l-96 194c68 46.667 139.167 82.334 213.5 107.001s153.166 37 236.499 37c64.667 0 124.5 -7.16699 179.5 -21.5s102.167 -37.666 141.5 -69.999s70.166 -74.5 92.499 -126.5
s33.5 -115.333 33.5 -190v-377h139v-274h-432v56zM489.002 210.997c47.333 0 90.335 7.6709 129.002 23.0039s71.667 34 99 56v132h-240c-15.333 0 -30.333 -2.33301 -45 -7s-27.834 -11.334 -39.501 -20.001s-21 -19.334 -28 -32.001s-10.5 -27.334 -10.5 -44.001
c0 -30.667 11.167 -56.334 33.5 -77.001s56.166 -31 101.499 -31zM574.004 1489h326v-25l-306 -286h-235z" />
    <glyph glyph-name="acircumflex" unicode="&#xe2;" horiz-adv-x="1280" 
d="M717 56c-23.333 -14.667 -44.6641 -27.1699 -63.9971 -37.5029s-38.666 -18.666 -57.999 -24.999s-39.333 -11 -60 -14s-43.334 -4.5 -68.001 -4.5c-62 0 -117.5 8.5 -166.5 25.5s-90.333 40.333 -124 70s-59.5 64.667 -77.5 105s-27 84.166 -27 131.499
c0 48 9.16699 92.333 27.5 133s44.833 75.5 79.5 104.5s77.167 51.667 127.5 68s107.833 24.5 172.5 24.5c47.333 0 90.5 -2.5 129.5 -7.5s75.167 -11.167 108.5 -18.5v32c0 26 -5 48.5 -15 67.5s-24 34.667 -42 47s-39.667 21.333 -65 27s-53 8.5 -83 8.5
c-62.667 0 -117.834 -6.16699 -165.501 -18.5s-93.5 -30.166 -137.5 -53.499l-96 194c68 46.667 139.167 82.334 213.5 107.001s153.166 37 236.499 37c64.667 0 124.5 -7.16699 179.5 -21.5s102.167 -37.666 141.5 -69.999s70.166 -74.5 92.499 -126.5
s33.5 -115.333 33.5 -190v-377h139v-274h-432v56zM489.002 210.997c47.333 0 90.335 7.6709 129.002 23.0039s71.667 34 99 56v132h-240c-15.333 0 -30.333 -2.33301 -45 -7s-27.834 -11.334 -39.501 -20.001s-21 -19.334 -28 -32.001s-10.5 -27.334 -10.5 -44.001
c0 -30.667 11.167 -56.334 33.5 -77.001s56.166 -31 101.499 -31zM237.004 1176l272 325h240l274 -325h-245l-148 153l-145 -153h-248z" />
    <glyph glyph-name="atilde" unicode="&#xe3;" horiz-adv-x="1280" 
d="M717 56c-23.333 -14.667 -44.6641 -27.1699 -63.9971 -37.5029s-38.666 -18.666 -57.999 -24.999s-39.333 -11 -60 -14s-43.334 -4.5 -68.001 -4.5c-62 0 -117.5 8.5 -166.5 25.5s-90.333 40.333 -124 70s-59.5 64.667 -77.5 105s-27 84.166 -27 131.499
c0 48 9.16699 92.333 27.5 133s44.833 75.5 79.5 104.5s77.167 51.667 127.5 68s107.833 24.5 172.5 24.5c47.333 0 90.5 -2.5 129.5 -7.5s75.167 -11.167 108.5 -18.5v32c0 26 -5 48.5 -15 67.5s-24 34.667 -42 47s-39.667 21.333 -65 27s-53 8.5 -83 8.5
c-62.667 0 -117.834 -6.16699 -165.501 -18.5s-93.5 -30.166 -137.5 -53.499l-96 194c68 46.667 139.167 82.334 213.5 107.001s153.166 37 236.499 37c64.667 0 124.5 -7.16699 179.5 -21.5s102.167 -37.666 141.5 -69.999s70.166 -74.5 92.499 -126.5
s33.5 -115.333 33.5 -190v-377h139v-274h-432v56zM489.002 210.997c47.333 0 90.335 7.6709 129.002 23.0039s71.667 34 99 56v132h-240c-15.333 0 -30.333 -2.33301 -45 -7s-27.834 -11.334 -39.501 -20.001s-21 -19.334 -28 -32.001s-10.5 -27.334 -10.5 -44.001
c0 -30.667 11.167 -56.334 33.5 -77.001s56.166 -31 101.499 -31zM476.004 1479c28 0 55.002 -4.83203 81.002 -14.499s51.5 -20.334 76.5 -32.001s49.333 -22.334 73 -32.001s47.167 -14.5 70.5 -14.5c28 0 52.833 5 74.5 15s41.167 27.667 58.5 53l158 -70
c-10 -30 -24.167 -58 -42.5 -84s-39.5 -48.833 -63.5 -68.5s-50.333 -35 -79 -46s-58.667 -16.5 -90 -16.5c-34.667 0 -66 4.5 -94 13.5s-54.5 19 -79.5 30s-49.5 21.167 -73.5 30.5s-49.333 14 -76 14c-30 0 -55.333 -6.16699 -76 -18.5s-37.667 -27.166 -51 -44.499
l-152 70c9.33301 36 25.166 67.333 47.499 94s47.166 49 74.499 67s55.5 31.5 84.5 40.5s55.167 13.5 78.5 13.5z" />
    <glyph glyph-name="adieresis" unicode="&#xe4;" horiz-adv-x="1280" 
d="M717 56c-23.333 -14.667 -44.6641 -27.1699 -63.9971 -37.5029s-38.666 -18.666 -57.999 -24.999s-39.333 -11 -60 -14s-43.334 -4.5 -68.001 -4.5c-62 0 -117.5 8.5 -166.5 25.5s-90.333 40.333 -124 70s-59.5 64.667 -77.5 105s-27 84.166 -27 131.499
c0 48 9.16699 92.333 27.5 133s44.833 75.5 79.5 104.5s77.167 51.667 127.5 68s107.833 24.5 172.5 24.5c47.333 0 90.5 -2.5 129.5 -7.5s75.167 -11.167 108.5 -18.5v32c0 26 -5 48.5 -15 67.5s-24 34.667 -42 47s-39.667 21.333 -65 27s-53 8.5 -83 8.5
c-62.667 0 -117.834 -6.16699 -165.501 -18.5s-93.5 -30.166 -137.5 -53.499l-96 194c68 46.667 139.167 82.334 213.5 107.001s153.166 37 236.499 37c64.667 0 124.5 -7.16699 179.5 -21.5s102.167 -37.666 141.5 -69.999s70.166 -74.5 92.499 -126.5
s33.5 -115.333 33.5 -190v-377h139v-274h-432v56zM489.002 210.997c47.333 0 90.335 7.6709 129.002 23.0039s71.667 34 99 56v132h-240c-15.333 0 -30.333 -2.33301 -45 -7s-27.834 -11.334 -39.501 -20.001s-21 -19.334 -28 -32.001s-10.5 -27.334 -10.5 -44.001
c0 -30.667 11.167 -56.334 33.5 -77.001s56.166 -31 101.499 -31zM213.004 1343c0 24.667 4.5 47.834 13.5 69.501s21.5 40.667 37.5 57s34.833 29.166 56.5 38.499s45.167 14 70.5 14c24 0 46.667 -4.66699 68 -14s40 -22.166 56 -38.499s28.667 -35.333 38 -57
s14 -44.834 14 -69.501s-4.66699 -47.834 -14 -69.501s-22 -40.5 -38 -56.5s-34.667 -28.667 -56 -38s-44 -14 -68 -14c-25.333 0 -48.833 4.66699 -70.5 14s-40.5 22 -56.5 38s-28.5 34.833 -37.5 56.5s-13.5 44.834 -13.5 69.501zM692.004 1343
c0 24.667 4.66699 47.834 14 69.501s22 40.667 38 57s34.833 29.166 56.5 38.499s45.167 14 70.5 14c24 0 46.667 -4.66699 68 -14s40 -22.166 56 -38.499s28.667 -35.333 38 -57s14 -44.834 14 -69.501s-4.66699 -47.834 -14 -69.501s-22 -40.5 -38 -56.5
s-34.667 -28.667 -56 -38s-44 -14 -68 -14c-25.333 0 -48.833 4.66699 -70.5 14s-40.5 22 -56.5 38s-28.667 34.833 -38 56.5s-14 44.834 -14 69.501z" />
    <glyph glyph-name="aring" unicode="&#xe5;" horiz-adv-x="1280" 
d="M717 56c-23.333 -14.667 -44.6641 -27.1699 -63.9971 -37.5029s-38.666 -18.666 -57.999 -24.999s-39.333 -11 -60 -14s-43.334 -4.5 -68.001 -4.5c-62 0 -117.5 8.5 -166.5 25.5s-90.333 40.333 -124 70s-59.5 64.667 -77.5 105s-27 84.166 -27 131.499
c0 48 9.16699 92.333 27.5 133s44.833 75.5 79.5 104.5s77.167 51.667 127.5 68s107.833 24.5 172.5 24.5c47.333 0 90.5 -2.5 129.5 -7.5s75.167 -11.167 108.5 -18.5v32c0 26 -5 48.5 -15 67.5s-24 34.667 -42 47s-39.667 21.333 -65 27s-53 8.5 -83 8.5
c-62.667 0 -117.834 -6.16699 -165.501 -18.5s-93.5 -30.166 -137.5 -53.499l-96 194c68 46.667 139.167 82.334 213.5 107.001s153.166 37 236.499 37c64.667 0 124.5 -7.16699 179.5 -21.5s102.167 -37.666 141.5 -69.999s70.166 -74.5 92.499 -126.5
s33.5 -115.333 33.5 -190v-377h139v-274h-432v56zM489.002 210.997c47.333 0 90.335 7.6709 129.002 23.0039s71.667 34 99 56v132h-240c-15.333 0 -30.333 -2.33301 -45 -7s-27.834 -11.334 -39.501 -20.001s-21 -19.334 -28 -32.001s-10.5 -27.334 -10.5 -44.001
c0 -30.667 11.167 -56.334 33.5 -77.001s56.166 -31 101.499 -31zM576.004 1733c43.333 0 84.333 -8.33301 123 -25s72.5 -39.334 101.5 -68.001s51.833 -62.334 68.5 -101.001s25 -79.667 25 -123s-8.33301 -84.333 -25 -123s-39.5 -72.5 -68.5 -101.5
s-62.833 -51.833 -101.5 -68.5s-79.667 -25 -123 -25s-84.333 8.33301 -123 25s-72.334 39.5 -101.001 68.5s-51.334 62.833 -68.001 101.5s-25 79.667 -25 123s8.33301 84.333 25 123s39.334 72.334 68.001 101.001s62.334 51.334 101.001 68.001s79.667 25 123 25z
M451.004 1416c0 -17.333 3.33301 -33.666 10 -48.999s15.667 -28.666 27 -39.999s24.5 -20.166 39.5 -26.499s31.167 -9.5 48.5 -9.5s33.5 3.16699 48.5 9.5s28 15.166 39 26.499s19.667 24.666 26 39.999s9.5 31.666 9.5 48.999s-3.16699 33.5 -9.5 48.5s-15 28 -26 39
s-24 19.667 -39 26s-31.167 9.5 -48.5 9.5s-33.5 -3.16699 -48.5 -9.5s-28.167 -15 -39.5 -26s-20.333 -24 -27 -39s-10 -31.167 -10 -48.5z" />
    <glyph glyph-name="ae" unicode="&#xe6;" horiz-adv-x="1851" 
d="M711 643c0 52.667 -17.9961 90.8281 -53.9961 114.495s-84.333 35.5 -145 35.5c-62.667 0 -117.834 -6.16699 -165.501 -18.5s-93.5 -30.166 -137.5 -53.499l-96 194c68 46.667 139.167 82.334 213.5 107.001s153.166 37 236.499 37c64.667 0 124 -7.16699 178 -21.5
s105 -42.166 153 -83.499c40 34 85.667 62 137 84c66.667 28.667 140.667 43 222 43s153.5 -13.5 216.5 -40.5s116.167 -64.333 159.5 -112s76.666 -103.667 99.999 -168s36 -119.166 38 -164.499s3.16699 -76.166 3.5 -92.499s-0.166992 -33.166 -1.5 -50.499h-763l3 -31
c7.33301 -30 19.833 -56.333 37.5 -79s38.5 -41.667 62.5 -57s50.667 -26.833 80 -34.5s59 -11.5 89 -11.5s58.5 1.83301 85.5 5.5s53.167 8.66699 78.5 15s50 13.666 74 21.999l73 26.5l110 -205c-38 -23.333 -72.833 -43.166 -104.5 -59.499s-63.5 -29.833 -95.5 -40.5
s-66 -18.5 -102 -23.5s-78 -7.5 -126 -7.5c-90 0 -170 14.833 -240 44.5s-128.667 69.5 -176 119.5c-18.667 -18.667 -40 -37.5 -64 -56.5s-52.167 -36.5 -84.5 -52.5s-68.333 -28.833 -108 -38.5s-83.5 -14.5 -131.5 -14.5c-62 0 -117.5 8.5 -166.5 25.5
s-90.333 40.333 -124 70s-59.5 64.667 -77.5 105s-27 84.166 -27 131.499c0 48 9.16699 92.333 27.5 133s44.833 75.5 79.5 104.5s77.167 51.667 127.5 68s107.833 24.5 172.5 24.5c50.667 0 96.667 -2.66699 138 -8c33.333 -4.66699 64.666 -10 93.999 -16v30z
M432.004 414.994c-14.667 -4.66699 -27.834 -11.3291 -39.501 -19.9961s-21 -19.334 -28 -32.001s-10.5 -27.334 -10.5 -44.001c0 -30.667 11.167 -56.334 33.5 -77.001s56.166 -31 101.499 -31c62 0 115 10 159 30c36.667 17.333 70.334 38.666 101.001 63.999
c-1.33301 3.33301 -2.66602 7 -3.99902 11c-12.667 34 -22 69.333 -28 106h-240c-15.333 0 -30.333 -2.33301 -45 -7zM1245 830.999c-37.333 0 -69.166 -4.5 -95.499 -13.5s-48.5 -21.333 -66.5 -37s-32.333 -33.5 -43 -53.5s-19 -41 -25 -63h433
c-4.66699 22.667 -11.334 44 -20.001 64s-20.667 37.667 -36 53s-34.833 27.5 -58.5 36.5s-53.167 13.5 -88.5 13.5z" />
    <glyph glyph-name="ccedilla" unicode="&#xe7;" horiz-adv-x="1180" 
d="M856 678c-28.667 36 -60.667 63.1709 -96 81.5039s-77 26.166 -125 23.499c-38.667 2.66699 -73.834 -2.66602 -105.501 -15.999s-59 -32 -82 -56s-40.833 -52.5 -53.5 -85.5s-19 -70.167 -19 -111.5c0 -36.667 6.66699 -71.334 20 -104.001s31.5 -60.834 54.5 -84.501
s50.333 -42.167 82 -55.5s66.167 -21.333 103.5 -24c31.333 2.66699 59.833 9.16699 85.5 19.5s48.5 23.666 68.5 39.999s37.167 34.666 51.5 54.999s25.5 39.5 33.5 57.5l275 -76c-11.333 -40 -30.833 -81.667 -58.5 -125s-63.667 -82.833 -108 -118.5
s-97 -65.167 -158 -88.5s-130.5 -35 -208.5 -35c-79.333 0 -152.333 14.5 -219 43.5s-124 68.5 -172 118.5s-85.5 108.667 -112.5 176s-40.5 139.666 -40.5 216.999c0 76.667 13.833 147.834 41.5 213.501s65.834 123 114.501 172s106.5 87.167 173.5 114.5
s139.833 39.666 218.5 36.999c56 2.66699 110.333 -3.66602 163 -18.999s102.667 -38.333 150 -69h199v-301h-276zM355 -292.996c27.333 2 53.167 8.5 77.5 19.5s46.333 26.5 66 46.5s36.667 44.5 51 73.5s24.833 62.5 31.5 100.5l243 -86
c-15.333 -52.667 -37 -98.667 -65 -138s-61.333 -72 -100 -98s-81.5 -45.667 -128.5 -59s-97.167 -20.333 -150.5 -21z" />
    <glyph glyph-name="egrave" unicode="&#xe8;" horiz-adv-x="1186" 
d="M349 453l3.00098 -31.0039c7.33301 -30 19.833 -56.333 37.5 -79s38.5 -41.667 62.5 -57s50.667 -26.833 80 -34.5s59 -11.5 89 -11.5s58.5 1.83301 85.5 5.5s53.167 8.66699 78.5 15s50 13.666 74 21.999l73 26.5l110 -205c-38 -23.333 -72.833 -43.166 -104.5 -59.499
s-63.5 -29.833 -95.5 -40.5s-66 -18.5 -102 -23.5s-78 -7.5 -126 -7.5c-90 0 -170 14.833 -240 44.5s-128.833 69.834 -176.5 120.501s-84 110 -109 178s-37.5 140 -37.5 216s13.167 147.333 39.5 214s63.5 124.834 111.5 174.501s105.333 88.834 172 117.501
s140.667 43 222 43s153.5 -13.5 216.5 -40.5s116.167 -64.333 159.5 -112s76.666 -103.667 99.999 -168s36 -133.5 38 -207.5c2 -16.667 3.16699 -33.167 3.5 -49.5s-0.166992 -33.166 -1.5 -50.499h-763zM588.001 830.996c-37.333 0 -69.166 -4.5 -95.499 -13.5
s-48.5 -21.333 -66.5 -37s-32.333 -33.5 -43 -53.5s-19 -41 -25 -63h433c-4.66699 22.667 -11.334 44 -20.001 64s-20.667 37.667 -36 53s-34.833 27.5 -58.5 36.5s-53.167 13.5 -88.5 13.5zM625.001 1178l-293 286v25h326l196 -311h-229z" />
    <glyph glyph-name="eacute" unicode="&#xe9;" horiz-adv-x="1186" 
d="M349 453l3.00098 -31.0039c7.33301 -30 19.833 -56.333 37.5 -79s38.5 -41.667 62.5 -57s50.667 -26.833 80 -34.5s59 -11.5 89 -11.5s58.5 1.83301 85.5 5.5s53.167 8.66699 78.5 15s50 13.666 74 21.999l73 26.5l110 -205c-38 -23.333 -72.833 -43.166 -104.5 -59.499
s-63.5 -29.833 -95.5 -40.5s-66 -18.5 -102 -23.5s-78 -7.5 -126 -7.5c-90 0 -170 14.833 -240 44.5s-128.833 69.834 -176.5 120.501s-84 110 -109 178s-37.5 140 -37.5 216s13.167 147.333 39.5 214s63.5 124.834 111.5 174.501s105.333 88.834 172 117.501
s140.667 43 222 43s153.5 -13.5 216.5 -40.5s116.167 -64.333 159.5 -112s76.666 -103.667 99.999 -168s36 -133.5 38 -207.5c2 -16.667 3.16699 -33.167 3.5 -49.5s-0.166992 -33.166 -1.5 -50.499h-763zM588.001 830.996c-37.333 0 -69.166 -4.5 -95.499 -13.5
s-48.5 -21.333 -66.5 -37s-32.333 -33.5 -43 -53.5s-19 -41 -25 -63h433c-4.66699 22.667 -11.334 44 -20.001 64s-20.667 37.667 -36 53s-34.833 27.5 -58.5 36.5s-53.167 13.5 -88.5 13.5zM537.001 1489h326v-25l-306 -286h-235z" />
    <glyph glyph-name="ecircumflex" unicode="&#xea;" horiz-adv-x="1186" 
d="M349 453l3.00098 -31.0039c7.33301 -30 19.833 -56.333 37.5 -79s38.5 -41.667 62.5 -57s50.667 -26.833 80 -34.5s59 -11.5 89 -11.5s58.5 1.83301 85.5 5.5s53.167 8.66699 78.5 15s50 13.666 74 21.999l73 26.5l110 -205c-38 -23.333 -72.833 -43.166 -104.5 -59.499
s-63.5 -29.833 -95.5 -40.5s-66 -18.5 -102 -23.5s-78 -7.5 -126 -7.5c-90 0 -170 14.833 -240 44.5s-128.833 69.834 -176.5 120.501s-84 110 -109 178s-37.5 140 -37.5 216s13.167 147.333 39.5 214s63.5 124.834 111.5 174.501s105.333 88.834 172 117.501
s140.667 43 222 43s153.5 -13.5 216.5 -40.5s116.167 -64.333 159.5 -112s76.666 -103.667 99.999 -168s36 -133.5 38 -207.5c2 -16.667 3.16699 -33.167 3.5 -49.5s-0.166992 -33.166 -1.5 -50.499h-763zM588.001 830.996c-37.333 0 -69.166 -4.5 -95.499 -13.5
s-48.5 -21.333 -66.5 -37s-32.333 -33.5 -43 -53.5s-19 -41 -25 -63h433c-4.66699 22.667 -11.334 44 -20.001 64s-20.667 37.667 -36 53s-34.833 27.5 -58.5 36.5s-53.167 13.5 -88.5 13.5zM200.001 1176l272 325h240l274 -325h-245l-148 153l-145 -153h-248z" />
    <glyph glyph-name="edieresis" unicode="&#xeb;" horiz-adv-x="1186" 
d="M349 453l3.00098 -31.0039c7.33301 -30 19.833 -56.333 37.5 -79s38.5 -41.667 62.5 -57s50.667 -26.833 80 -34.5s59 -11.5 89 -11.5s58.5 1.83301 85.5 5.5s53.167 8.66699 78.5 15s50 13.666 74 21.999l73 26.5l110 -205c-38 -23.333 -72.833 -43.166 -104.5 -59.499
s-63.5 -29.833 -95.5 -40.5s-66 -18.5 -102 -23.5s-78 -7.5 -126 -7.5c-90 0 -170 14.833 -240 44.5s-128.833 69.834 -176.5 120.501s-84 110 -109 178s-37.5 140 -37.5 216s13.167 147.333 39.5 214s63.5 124.834 111.5 174.501s105.333 88.834 172 117.501
s140.667 43 222 43s153.5 -13.5 216.5 -40.5s116.167 -64.333 159.5 -112s76.666 -103.667 99.999 -168s36 -133.5 38 -207.5c2 -16.667 3.16699 -33.167 3.5 -49.5s-0.166992 -33.166 -1.5 -50.499h-763zM588.001 830.996c-37.333 0 -69.166 -4.5 -95.499 -13.5
s-48.5 -21.333 -66.5 -37s-32.333 -33.5 -43 -53.5s-19 -41 -25 -63h433c-4.66699 22.667 -11.334 44 -20.001 64s-20.667 37.667 -36 53s-34.833 27.5 -58.5 36.5s-53.167 13.5 -88.5 13.5zM176.001 1343c0 24.667 4.5 47.834 13.5 69.501s21.5 40.667 37.5 57
s34.833 29.166 56.5 38.499s45.167 14 70.5 14c24 0 46.667 -4.66699 68 -14s40 -22.166 56 -38.499s28.667 -35.333 38 -57s14 -44.834 14 -69.501s-4.66699 -47.834 -14 -69.501s-22 -40.5 -38 -56.5s-34.667 -28.667 -56 -38s-44 -14 -68 -14
c-25.333 0 -48.833 4.66699 -70.5 14s-40.5 22 -56.5 38s-28.5 34.833 -37.5 56.5s-13.5 44.834 -13.5 69.501zM655.001 1343c0 24.667 4.66699 47.834 14 69.501s22 40.667 38 57s34.833 29.166 56.5 38.499s45.167 14 70.5 14c24 0 46.667 -4.66699 68 -14
s40 -22.166 56 -38.499s28.667 -35.333 38 -57s14 -44.834 14 -69.501s-4.66699 -47.834 -14 -69.501s-22 -40.5 -38 -56.5s-34.667 -28.667 -56 -38s-44 -14 -68 -14c-25.333 0 -48.833 4.66699 -70.5 14s-40.5 22 -56.5 38s-28.667 34.833 -38 56.5s-14 44.834 -14 69.501
z" />
    <glyph glyph-name="igrave" unicode="&#xec;" horiz-adv-x="790" 
d="M80 1037l467 -1v-762h142v-274h-608v274h156v488h-157v275zM348 1178l-293 286v25h326l196 -311h-229z" />
    <glyph glyph-name="iacute" unicode="&#xed;" horiz-adv-x="790" 
d="M339 1489h326v-25l-306 -286h-235zM80 1037l467 -1v-762h142v-274h-608v274h156v488h-157v275z" />
    <glyph glyph-name="icircumflex" unicode="&#xee;" horiz-adv-x="790" 
d="M3 1176l272 325h240l274 -325h-245l-148 153l-145 -153h-248zM80 1037l467 -1v-762h142v-274h-608v274h156v488h-157v275z" />
    <glyph glyph-name="idieresis" unicode="&#xef;" horiz-adv-x="790" 
d="M-21 1343c0 24.667 4.5 47.834 13.5 69.501s21.5 40.667 37.5 57s34.833 29.166 56.5 38.499s45.167 14 70.5 14c24 0 46.667 -4.66699 68 -14s40 -22.166 56 -38.499s28.667 -35.333 38 -57s14 -44.834 14 -69.501s-4.66699 -47.834 -14 -69.501s-22 -40.5 -38 -56.5
s-34.667 -28.667 -56 -38s-44 -14 -68 -14c-25.333 0 -48.833 4.66699 -70.5 14s-40.5 22 -56.5 38s-28.5 34.833 -37.5 56.5s-13.5 44.834 -13.5 69.501zM458 1343c0 24.667 4.66699 47.834 14 69.501s22 40.667 38 57s34.833 29.166 56.5 38.499s45.167 14 70.5 14
c24 0 46.667 -4.66699 68 -14s40 -22.166 56 -38.499s28.667 -35.333 38 -57s14 -44.834 14 -69.501s-4.66699 -47.834 -14 -69.501s-22 -40.5 -38 -56.5s-34.667 -28.667 -56 -38s-44 -14 -68 -14c-25.333 0 -48.833 4.66699 -70.5 14s-40.5 22 -56.5 38
s-28.667 34.833 -38 56.5s-14 44.834 -14 69.501zM80 1037l467 -1v-762h142v-274h-608v274h156v488h-157v275z" />
    <glyph glyph-name="eth" unicode="&#xf0;" horiz-adv-x="1250" 
d="M985 1213l-135.001 -33l180 -324l46 -85c14.667 -28 27.834 -56.333 39.501 -85s20.834 -58.167 27.501 -88.5s10 -62.166 10 -95.499c0 -70 -13.833 -135.333 -41.5 -196s-65.334 -113.334 -113.001 -158.001s-103.167 -79.834 -166.5 -105.501
s-130.333 -38.5 -201 -38.5c-72 0 -140 12.833 -204 38.5s-119.667 61.167 -167 106.5s-84.833 99 -112.5 161s-41.5 129.333 -41.5 202c0 59.333 10.5 115.333 31.5 168s49.833 99.834 86.5 141.501s79.667 76.667 129 105s102.333 47.833 159 58.5
c15.333 3.33301 31.333 5.83301 48 7.5s34 2.16699 52 1.5l-65 114l-219 -53l-64 268l142 34l-101 177h350l57 -104l209 50zM636.999 711c-32 0 -62.333 -4.99805 -91 -14.998s-53.5 -24 -74.5 -42s-37.667 -39.667 -50 -65s-18.5 -53.666 -18.5 -84.999
c0 -32.667 6.66699 -61.834 20 -87.501s30.833 -47.334 52.5 -65.001s46 -31.167 73 -40.5s54.5 -14 82.5 -14c38.667 0 72.167 6.5 100.5 19.5s51.666 29.833 69.999 50.5s32 43.167 41 67.5s13.5 48.166 13.5 71.499c0 33.333 -5.66699 62.833 -17 88.5
s-26.666 47.167 -45.999 64.5s-42.5 30.333 -69.5 39s-55.833 13 -86.5 13z" />
    <glyph glyph-name="ntilde" unicode="&#xf1;" horiz-adv-x="1460" 
d="M932 596c0 58 -15.333 103.5 -46 136.5s-71.334 49.5 -122.001 49.5c-34.667 0 -69.667 -7.66699 -105 -23s-69.666 -44 -102.999 -86v-399h168v-274h-644v274h152v488h-150v274h472v-91c43.333 34 91.833 60.833 145.5 80.5s110.167 29.5 169.5 29.5
c124.667 0 220.667 -34.833 288 -104.5s101 -171.5 101 -305.5v-371h147v-274h-473v596zM576 1479c28 0 55.002 -4.83203 81.002 -14.499s51.5 -20.334 76.5 -32.001s49.333 -22.334 73 -32.001s47.167 -14.5 70.5 -14.5c28 0 52.833 5 74.5 15s41.167 27.667 58.5 53
l158 -70c-10 -30 -24.167 -58 -42.5 -84s-39.5 -48.833 -63.5 -68.5s-50.333 -35 -79 -46s-58.667 -16.5 -90 -16.5c-34.667 0 -66 4.5 -94 13.5s-54.5 19 -79.5 30s-49.5 21.167 -73.5 30.5s-49.333 14 -76 14c-30 0 -55.333 -6.16699 -76 -18.5
s-37.667 -27.166 -51 -44.499l-152 70c9.33301 36 25.166 67.333 47.499 94s47.166 49 74.499 67s55.5 31.5 84.5 40.5s55.167 13.5 78.5 13.5z" />
    <glyph glyph-name="ograve" unicode="&#xf2;" 
d="M72 522c0 75.333 13.665 146.001 40.998 212.001s65.333 123.667 114 173s106.667 88.333 174 117s141.333 43 222 43s154.834 -14.333 222.501 -43s125.834 -67.667 174.501 -117s86.5 -107 113.5 -173s40.5 -136.667 40.5 -212s-13.167 -146.166 -39.5 -212.499
s-63.666 -124.333 -111.999 -174s-106.333 -88.834 -174 -117.501s-142.834 -43 -225.501 -43c-83.333 0 -158.833 14.333 -226.5 43s-125.5 67.667 -173.5 117s-85.167 107.166 -111.5 173.499s-39.5 137.5 -39.5 213.5zM370.998 522.001
c0 -39.333 6.66699 -75.5 20 -108.5s31.5 -61.5 54.5 -85.5s49.667 -42.667 80 -56s62.833 -20 97.5 -20c35.333 0 68.166 6.5 98.499 19.5s56.666 31.5 78.999 55.5s39.833 52.5 52.5 85.5s19 69.5 19 109.5c0 41.333 -6.33301 78.666 -19 111.999
s-30.167 61.666 -52.5 84.999s-48.666 41.166 -78.999 53.499s-63.166 18.166 -98.499 17.499c-34.667 0.666992 -67.167 -5.16602 -97.5 -17.499s-57 -30.166 -80 -53.499s-41.167 -51.666 -54.5 -84.999s-20 -70.666 -20 -111.999zM653.998 1178l-293 286v25h326l196 -311
h-229z" />
    <glyph glyph-name="oacute" unicode="&#xf3;" 
d="M72 522c0 75.333 13.665 146.001 40.998 212.001s65.333 123.667 114 173s106.667 88.333 174 117s141.333 43 222 43s154.834 -14.333 222.501 -43s125.834 -67.667 174.501 -117s86.5 -107 113.5 -173s40.5 -136.667 40.5 -212s-13.167 -146.166 -39.5 -212.499
s-63.666 -124.333 -111.999 -174s-106.333 -88.834 -174 -117.501s-142.834 -43 -225.501 -43c-83.333 0 -158.833 14.333 -226.5 43s-125.5 67.667 -173.5 117s-85.167 107.166 -111.5 173.499s-39.5 137.5 -39.5 213.5zM370.998 522.001
c0 -39.333 6.66699 -75.5 20 -108.5s31.5 -61.5 54.5 -85.5s49.667 -42.667 80 -56s62.833 -20 97.5 -20c35.333 0 68.166 6.5 98.499 19.5s56.666 31.5 78.999 55.5s39.833 52.5 52.5 85.5s19 69.5 19 109.5c0 41.333 -6.33301 78.666 -19 111.999
s-30.167 61.666 -52.5 84.999s-48.666 41.166 -78.999 53.499s-63.166 18.166 -98.499 17.499c-34.667 0.666992 -67.167 -5.16602 -97.5 -17.499s-57 -30.166 -80 -53.499s-41.167 -51.666 -54.5 -84.999s-20 -70.666 -20 -111.999zM566.998 1489h326v-25l-306 -286h-235z
" />
    <glyph glyph-name="ocircumflex" unicode="&#xf4;" 
d="M72 522c0 75.333 13.665 146.001 40.998 212.001s65.333 123.667 114 173s106.667 88.333 174 117s141.333 43 222 43s154.834 -14.333 222.501 -43s125.834 -67.667 174.501 -117s86.5 -107 113.5 -173s40.5 -136.667 40.5 -212s-13.167 -146.166 -39.5 -212.499
s-63.666 -124.333 -111.999 -174s-106.333 -88.834 -174 -117.501s-142.834 -43 -225.501 -43c-83.333 0 -158.833 14.333 -226.5 43s-125.5 67.667 -173.5 117s-85.167 107.166 -111.5 173.499s-39.5 137.5 -39.5 213.5zM370.998 522.001
c0 -39.333 6.66699 -75.5 20 -108.5s31.5 -61.5 54.5 -85.5s49.667 -42.667 80 -56s62.833 -20 97.5 -20c35.333 0 68.166 6.5 98.499 19.5s56.666 31.5 78.999 55.5s39.833 52.5 52.5 85.5s19 69.5 19 109.5c0 41.333 -6.33301 78.666 -19 111.999
s-30.167 61.666 -52.5 84.999s-48.666 41.166 -78.999 53.499s-63.166 18.166 -98.499 17.499c-34.667 0.666992 -67.167 -5.16602 -97.5 -17.499s-57 -30.166 -80 -53.499s-41.167 -51.666 -54.5 -84.999s-20 -70.666 -20 -111.999zM228.998 1176l272 325h240l274 -325
h-245l-148 153l-145 -153h-248z" />
    <glyph glyph-name="otilde" unicode="&#xf5;" 
d="M72 522c0 75.333 13.665 146.001 40.998 212.001s65.333 123.667 114 173s106.667 88.333 174 117s141.333 43 222 43s154.834 -14.333 222.501 -43s125.834 -67.667 174.501 -117s86.5 -107 113.5 -173s40.5 -136.667 40.5 -212s-13.167 -146.166 -39.5 -212.499
s-63.666 -124.333 -111.999 -174s-106.333 -88.834 -174 -117.501s-142.834 -43 -225.501 -43c-83.333 0 -158.833 14.333 -226.5 43s-125.5 67.667 -173.5 117s-85.167 107.166 -111.5 173.499s-39.5 137.5 -39.5 213.5zM370.998 522.001
c0 -39.333 6.66699 -75.5 20 -108.5s31.5 -61.5 54.5 -85.5s49.667 -42.667 80 -56s62.833 -20 97.5 -20c35.333 0 68.166 6.5 98.499 19.5s56.666 31.5 78.999 55.5s39.833 52.5 52.5 85.5s19 69.5 19 109.5c0 41.333 -6.33301 78.666 -19 111.999
s-30.167 61.666 -52.5 84.999s-48.666 41.166 -78.999 53.499s-63.166 18.166 -98.499 17.499c-34.667 0.666992 -67.167 -5.16602 -97.5 -17.499s-57 -30.166 -80 -53.499s-41.167 -51.666 -54.5 -84.999s-20 -70.666 -20 -111.999zM468.998 1479
c28 0 55.002 -4.83203 81.002 -14.499s51.5 -20.334 76.5 -32.001s49.333 -22.334 73 -32.001s47.167 -14.5 70.5 -14.5c28 0 52.833 5 74.5 15s41.167 27.667 58.5 53l158 -70c-10 -30 -24.167 -58 -42.5 -84s-39.5 -48.833 -63.5 -68.5s-50.333 -35 -79 -46
s-58.667 -16.5 -90 -16.5c-34.667 0 -66 4.5 -94 13.5s-54.5 19 -79.5 30s-49.5 21.167 -73.5 30.5s-49.333 14 -76 14c-30 0 -55.333 -6.16699 -76 -18.5s-37.667 -27.166 -51 -44.499l-152 70c9.33301 36 25.166 67.333 47.499 94s47.166 49 74.499 67
s55.5 31.5 84.5 40.5s55.167 13.5 78.5 13.5z" />
    <glyph glyph-name="odieresis" unicode="&#xf6;" 
d="M72 522c0 75.333 13.665 146.001 40.998 212.001s65.333 123.667 114 173s106.667 88.333 174 117s141.333 43 222 43s154.834 -14.333 222.501 -43s125.834 -67.667 174.501 -117s86.5 -107 113.5 -173s40.5 -136.667 40.5 -212s-13.167 -146.166 -39.5 -212.499
s-63.666 -124.333 -111.999 -174s-106.333 -88.834 -174 -117.501s-142.834 -43 -225.501 -43c-83.333 0 -158.833 14.333 -226.5 43s-125.5 67.667 -173.5 117s-85.167 107.166 -111.5 173.499s-39.5 137.5 -39.5 213.5zM370.998 522.001
c0 -39.333 6.66699 -75.5 20 -108.5s31.5 -61.5 54.5 -85.5s49.667 -42.667 80 -56s62.833 -20 97.5 -20c35.333 0 68.166 6.5 98.499 19.5s56.666 31.5 78.999 55.5s39.833 52.5 52.5 85.5s19 69.5 19 109.5c0 41.333 -6.33301 78.666 -19 111.999
s-30.167 61.666 -52.5 84.999s-48.666 41.166 -78.999 53.499s-63.166 18.166 -98.499 17.499c-34.667 0.666992 -67.167 -5.16602 -97.5 -17.499s-57 -30.166 -80 -53.499s-41.167 -51.666 -54.5 -84.999s-20 -70.666 -20 -111.999zM204.998 1343
c0 24.667 4.5 47.834 13.5 69.501s21.5 40.667 37.5 57s34.833 29.166 56.5 38.499s45.167 14 70.5 14c24 0 46.667 -4.66699 68 -14s40 -22.166 56 -38.499s28.667 -35.333 38 -57s14 -44.834 14 -69.501s-4.66699 -47.834 -14 -69.501s-22 -40.5 -38 -56.5
s-34.667 -28.667 -56 -38s-44 -14 -68 -14c-25.333 0 -48.833 4.66699 -70.5 14s-40.5 22 -56.5 38s-28.5 34.833 -37.5 56.5s-13.5 44.834 -13.5 69.501zM683.998 1343c0 24.667 4.66699 47.834 14 69.501s22 40.667 38 57s34.833 29.166 56.5 38.499s45.167 14 70.5 14
c24 0 46.667 -4.66699 68 -14s40 -22.166 56 -38.499s28.667 -35.333 38 -57s14 -44.834 14 -69.501s-4.66699 -47.834 -14 -69.501s-22 -40.5 -38 -56.5s-34.667 -28.667 -56 -38s-44 -14 -68 -14c-25.333 0 -48.833 4.66699 -70.5 14s-40.5 22 -56.5 38
s-28.667 34.833 -38 56.5s-14 44.834 -14 69.501z" />
    <glyph glyph-name="divide" unicode="&#xf7;" horiz-adv-x="1270" 
d="M52 668h1125v-274h-1125v274zM398 907c0 24.667 4.5 47.834 13.5 69.501s21.5 40.5 37.5 56.5s34.833 28.667 56.5 38s45.167 14 70.5 14c24 0 46.667 -4.66699 68 -14s40 -22 56 -38s28.667 -34.833 38 -56.5s14 -44.834 14 -69.501s-4.66699 -47.834 -14 -69.501
s-22 -40.5 -38 -56.5s-34.667 -28.667 -56 -38s-44 -14 -68 -14c-25.333 0 -48.833 4.66699 -70.5 14s-40.5 22 -56.5 38s-28.5 34.833 -37.5 56.5s-13.5 44.834 -13.5 69.501zM398 145c0 24.667 4.5 47.834 13.5 69.501s21.5 40.667 37.5 57s34.833 29.166 56.5 38.499
s45.167 14 70.5 14c24 0 46.667 -4.66699 68 -14s40 -22.166 56 -38.499s28.667 -35.333 38 -57s14 -44.834 14 -69.501s-4.66699 -47.834 -14 -69.501s-22 -40.5 -38 -56.5s-34.667 -28.667 -56 -38s-44 -14 -68 -14c-25.333 0 -48.833 4.66699 -70.5 14s-40.5 22 -56.5 38
s-28.5 34.833 -37.5 56.5s-13.5 44.834 -13.5 69.501z" />
    <glyph glyph-name="oslash" unicode="&#xf8;" horiz-adv-x="1196" 
d="M194 155c-42 48.667 -74.5 104.169 -97.5 166.502s-34.5 129.166 -34.5 200.499c0 75.333 13.667 146 41 212s65.333 123.667 114 173s106.667 88.333 174 117s141.333 43 222 43c44 0 85.833 -4.33301 125.5 -13s77.5 -21 113.5 -37l114 150h256l-204 -269
c46 -49.333 81.833 -106 107.5 -170s38.5 -132.667 38.5 -206c0 -75.333 -13.167 -146.166 -39.5 -212.499s-63.666 -124.333 -111.999 -174s-106.333 -88.834 -174 -117.501s-142.834 -43 -225.501 -43c-47.333 0 -92 4.66699 -134 14s-81.667 22.666 -119 39.999l-68 -90
h-262zM862 522.002c0 49.333 -9.33105 93.667 -27.998 133l-296 -392c24 -7.33301 49 -11 75 -11c35.333 0 68.166 6.5 98.499 19.5s56.666 31.5 78.999 55.5s39.833 52.5 52.5 85.5s19 69.5 19 109.5zM361.002 522.003c0 -44 7.99902 -83.3359 23.999 -118.003l289 380
c-17.333 4.66699 -37.666 7 -60.999 7c-34.667 0 -67.167 -6.16699 -97.5 -18.5s-57 -30.166 -80 -53.499s-41.167 -51.666 -54.5 -84.999s-20 -70.666 -20 -111.999z" />
    <glyph glyph-name="ugrave" unicode="&#xf9;" horiz-adv-x="1410" 
d="M723 1036l490 -0.000976562v-762h125v-274h-439v88c-35.333 -32 -76.666 -56.667 -123.999 -74s-102 -26 -164 -26c-57.333 0 -111.333 9 -162 27s-94.834 45.167 -132.501 81.5s-67.334 81.833 -89.001 136.5s-32.5 119 -32.5 193v336h-135v274h458v-610
c0 -69.333 17.667 -121.166 53 -155.499s81.333 -51.5 138 -51.5c40 0 76.333 12.333 109 37s56.334 58 71.001 100v406h-166v274zM737 1178l-293 286v25h326l196 -311h-229z" />
    <glyph glyph-name="uacute" unicode="&#xfa;" horiz-adv-x="1410" 
d="M723 1036l490 -0.000976562v-762h125v-274h-439v88c-35.333 -32 -76.666 -56.667 -123.999 -74s-102 -26 -164 -26c-57.333 0 -111.333 9 -162 27s-94.834 45.167 -132.501 81.5s-67.334 81.833 -89.001 136.5s-32.5 119 -32.5 193v336h-135v274h458v-610
c0 -69.333 17.667 -121.166 53 -155.499s81.333 -51.5 138 -51.5c40 0 76.333 12.333 109 37s56.334 58 71.001 100v406h-166v274zM649 1489h326v-25l-306 -286h-235z" />
    <glyph glyph-name="ucircumflex" unicode="&#xfb;" horiz-adv-x="1410" 
d="M723 1036l490 -0.000976562v-762h125v-274h-439v88c-35.333 -32 -76.666 -56.667 -123.999 -74s-102 -26 -164 -26c-57.333 0 -111.333 9 -162 27s-94.834 45.167 -132.501 81.5s-67.334 81.833 -89.001 136.5s-32.5 119 -32.5 193v336h-135v274h458v-610
c0 -69.333 17.667 -121.166 53 -155.499s81.333 -51.5 138 -51.5c40 0 76.333 12.333 109 37s56.334 58 71.001 100v406h-166v274zM312 1176l272 325h240l274 -325h-245l-148 153l-145 -153h-248z" />
    <glyph glyph-name="udieresis" unicode="&#xfc;" horiz-adv-x="1410" 
d="M723 1036l490 -0.000976562v-762h125v-274h-439v88c-35.333 -32 -76.666 -56.667 -123.999 -74s-102 -26 -164 -26c-57.333 0 -111.333 9 -162 27s-94.834 45.167 -132.501 81.5s-67.334 81.833 -89.001 136.5s-32.5 119 -32.5 193v336h-135v274h458v-610
c0 -69.333 17.667 -121.166 53 -155.499s81.333 -51.5 138 -51.5c40 0 76.333 12.333 109 37s56.334 58 71.001 100v406h-166v274zM288 1343c0 24.667 4.5 47.834 13.5 69.501s21.5 40.667 37.5 57s34.833 29.166 56.5 38.499s45.167 14 70.5 14
c24 0 46.667 -4.66699 68 -14s40 -22.166 56 -38.499s28.667 -35.333 38 -57s14 -44.834 14 -69.501s-4.66699 -47.834 -14 -69.501s-22 -40.5 -38 -56.5s-34.667 -28.667 -56 -38s-44 -14 -68 -14c-25.333 0 -48.833 4.66699 -70.5 14s-40.5 22 -56.5 38
s-28.5 34.833 -37.5 56.5s-13.5 44.834 -13.5 69.501zM767 1343c0 24.667 4.66699 47.834 14 69.501s22 40.667 38 57s34.833 29.166 56.5 38.499s45.167 14 70.5 14c24 0 46.667 -4.66699 68 -14s40 -22.166 56 -38.499s28.667 -35.333 38 -57s14 -44.834 14 -69.501
s-4.66699 -47.834 -14 -69.501s-22 -40.5 -38 -56.5s-34.667 -28.667 -56 -38s-44 -14 -68 -14c-25.333 0 -48.833 4.66699 -70.5 14s-40.5 22 -56.5 38s-28.667 34.833 -38 56.5s-14 44.834 -14 69.501z" />
    <glyph glyph-name="yacute" unicode="&#xfd;" horiz-adv-x="1241" 
d="M51 1036h508v-274h-80l149 -388l153 388h-89v274h508v-274h-113l-401 -959h178v-274h-643v274h181l78 197l-324 762h-105v274zM565 1489h326v-25l-306 -286h-235z" />
    <glyph glyph-name="thorn" unicode="&#xfe;" horiz-adv-x="1198" 
d="M28 1556l450.998 -0.00195312v-538c36 18 72.333 32.333 109 43s72.667 16 108 16c79.333 0 152.333 -14.5 219 -43.5s124.167 -68.333 172.5 -118s86 -107.667 113 -174s40.5 -136.833 40.5 -211.5c0 -75.333 -13.167 -146.166 -39.5 -212.499
s-63.166 -124.166 -110.499 -173.499s-103.666 -88.333 -168.999 -117s-137 -43 -215 -43c-82.667 0 -158.667 15.333 -228 46v-227h225v-274h-676v274h144v1478h-144v275zM685.998 785.998c-42 0 -80.832 -9.49902 -116.499 -28.499s-65.834 -45.5 -90.501 -79.5v-307
c21.333 -32 49.833 -57.833 85.5 -77.5s75.5 -29.5 119.5 -29.5c34 0 66.333 6.5 97 19.5s57.5 31.167 80.5 54.5s41.167 51.166 54.5 83.499s20 67.833 20 106.5c0 39.333 -6.66699 75 -20 107s-31.333 59.167 -54 81.5s-49.167 39.5 -79.5 51.5s-62.5 18 -96.5 18z" />
    <glyph glyph-name="ydieresis" unicode="&#xff;" horiz-adv-x="1241" 
d="M51 1036h508v-274h-80l149 -388l153 388h-89v274h508v-274h-113l-401 -959h178v-274h-643v274h181l78 197l-324 762h-105v274zM203 1343c0 24.667 4.5 47.834 13.5 69.501s21.5 40.667 37.5 57s34.833 29.166 56.5 38.499s45.167 14 70.5 14c24 0 46.667 -4.66699 68 -14
s40 -22.166 56 -38.499s28.667 -35.333 38 -57s14 -44.834 14 -69.501s-4.66699 -47.834 -14 -69.501s-22 -40.5 -38 -56.5s-34.667 -28.667 -56 -38s-44 -14 -68 -14c-25.333 0 -48.833 4.66699 -70.5 14s-40.5 22 -56.5 38s-28.5 34.833 -37.5 56.5
s-13.5 44.834 -13.5 69.501zM682 1343c0 24.667 4.66699 47.834 14 69.501s22 40.667 38 57s34.833 29.166 56.5 38.499s45.167 14 70.5 14c24 0 46.667 -4.66699 68 -14s40 -22.166 56 -38.499s28.667 -35.333 38 -57s14 -44.834 14 -69.501s-4.66699 -47.834 -14 -69.501
s-22 -40.5 -38 -56.5s-34.667 -28.667 -56 -38s-44 -14 -68 -14c-25.333 0 -48.833 4.66699 -70.5 14s-40.5 22 -56.5 38s-28.667 34.833 -38 56.5s-14 44.834 -14 69.501z" />
    <glyph glyph-name="Ccaron" unicode="&#x10c;" horiz-adv-x="1554" 
d="M1106 1055c-37.333 53.333 -71.0039 91.168 -101.004 113.501s-62.333 38.333 -97 48s-71 14.5 -109 14.5c-56 0 -108 -12.5 -156 -37.5s-89.5 -59 -124.5 -102s-62.5 -93 -82.5 -150s-30 -117.5 -30 -181.5c0 -64.667 9.83301 -125.5 29.5 -182.5
s46.834 -106.833 81.501 -149.5s76 -76.5 124 -101.5s100.667 -37.5 158 -37.5c40 0 77.333 6.5 112 19.5s66.167 30.167 94.5 51.5s53.166 45.833 74.499 73.5s38 56.5 50 86.5l322 -90c-20.667 -65.333 -51 -125.833 -91 -181.5s-88.167 -103.834 -144.5 -144.501
s-119.666 -72.667 -189.999 -96s-146.166 -35 -227.499 -35c-68.667 0 -134.334 9.33301 -197.001 28s-121.167 45 -175.5 79s-103.666 75 -147.999 123s-82.166 101.167 -113.499 159.5s-55.666 121 -72.999 188s-26 136.833 -26 209.5c0 108.667 19 210.5 57 305.5
s90 178 156 249s143.5 127 232.5 168s184.833 61.5 287.5 61.5c82 0 151 -10.167 207 -30.5s117.667 -60.5 185 -120.5h224v-338h-309zM1170 1942l-272 -325h-240l-274 325h246l147 -153l146 153h247z" />
    <glyph glyph-name="ccaron" unicode="&#x10d;" horiz-adv-x="1180" 
d="M856 678c-28.667 36 -60.667 63.1709 -96 81.5039s-77 26.166 -125 23.499c-38.667 2.66699 -73.834 -2.66602 -105.501 -15.999s-59 -32 -82 -56s-40.833 -52.5 -53.5 -85.5s-19 -70.167 -19 -111.5c0 -36.667 6.66699 -71.334 20 -104.001s31.5 -60.834 54.5 -84.501
s50.333 -42.167 82 -55.5s66.167 -21.333 103.5 -24c31.333 2.66699 59.833 9.16699 85.5 19.5s48.5 23.666 68.5 39.999s37.167 34.666 51.5 54.999s25.5 39.5 33.5 57.5l275 -76c-11.333 -40 -30.833 -81.667 -58.5 -125s-63.667 -82.833 -108 -118.5
s-97 -65.167 -158 -88.5s-130.5 -35 -208.5 -35c-79.333 0 -152.333 14.5 -219 43.5s-124 68.5 -172 118.5s-85.5 108.667 -112.5 176s-40.5 139.666 -40.5 216.999c0 76.667 13.833 147.834 41.5 213.501s65.834 123 114.501 172s106.5 87.167 173.5 114.5
s139.833 39.666 218.5 36.999c56 2.66699 110.333 -3.66602 163 -18.999s102.667 -38.333 150 -69h199v-301h-276zM983 1462l-272 -325h-240l-274 325h246l147 -153l146 153h247z" />
    <glyph glyph-name="dotlessi" unicode="&#x131;" horiz-adv-x="790" 
d="M80 1037l467 -1v-762h142v-274h-608v274h156v488h-157v275z" />
    <glyph glyph-name="Scaron" unicode="&#x160;" 
d="M842 1089c-3.33301 23.333 -11.499 45.3311 -24.499 65.998s-29.667 38.5 -50 53.5s-43.333 26.833 -69 35.5s-52.5 13 -80.5 13c-25.333 0 -49 -2.66699 -71 -8s-41.167 -13.5 -57.5 -24.5s-29.333 -25.167 -39 -42.5s-14.5 -38 -14.5 -62c0 -30 6.5 -53.833 19.5 -71.5
s29.667 -32.167 50 -43.5s42.833 -20.333 67.5 -27s48.667 -14 72 -22l275 -92c38 -13.333 73.667 -31.666 107 -54.999s62.166 -51.666 86.499 -84.999s43.5 -71.666 57.5 -114.999s21 -92 21 -146c0 -73.333 -13.5 -140.333 -40.5 -201s-64.833 -112.667 -113.5 -156
s-107 -77 -175 -101s-143.333 -36 -226 -36c-58 0 -112.833 6.5 -164.5 19.5s-98.834 31.833 -141.501 56.5s-80 54.167 -112 88.5s-57 73.166 -75 116.499h-103v301h362v-62c0 -30 4.83301 -57.667 14.5 -83s24.167 -47.333 43.5 -66s43.666 -33.167 72.999 -43.5
s63.666 -15.5 102.999 -15.5c60 0 105.667 13.833 137 41.5s47 66.167 47 115.5c0 25.333 -5.5 46.5 -16.5 63.5s-25.167 31.333 -42.5 43s-36.666 21.5 -57.999 29.5s-42.333 15.333 -63 22l-229 74c-43.333 13.333 -85.166 32 -125.499 56s-76 54 -107 90
s-55.667 78.167 -74 126.5s-27.5 103.5 -27.5 165.5c0 72 13.333 136.167 40 192.5s64 103.833 112 142.5s105 68 171 88s138.333 30 217 30c62 0 119.333 -7.16699 172 -21.5s99.834 -33.5 141.501 -57.5s77 -51.5 106 -82.5s51.167 -63.167 66.5 -96.5h100v-302h-362v88z
M1015 1942l-272 -325h-240l-274 325h246l147 -153l146 153h247z" />
    <glyph glyph-name="scaron" unicode="&#x161;" horiz-adv-x="1102" 
d="M725.5 765c-10.333 14.667 -25.5029 27.5029 -45.5029 38.5029s-44.5 19.833 -73.5 26.5s-61.833 10 -98.5 10c-14 0 -29 -1.16699 -45 -3.5s-30.833 -6.5 -44.5 -12.5s-25 -14.167 -34 -24.5s-13.5 -23.5 -13.5 -39.5c0 -8 1.16699 -15.667 3.5 -23
s6.83301 -14.333 13.5 -21s15.834 -12.834 27.501 -18.501s26.834 -10.167 45.501 -13.5l188 -37c68 -13.333 125 -30 171 -50s83 -43.333 111 -70s48.167 -56.334 60.5 -89.001s18.5 -68 18.5 -106c0 -59.333 -13.833 -111.333 -41.5 -156s-64 -81.834 -109 -111.501
s-95.667 -52 -152 -67s-113.166 -22.5 -170.499 -22.5c-37.333 0 -71.166 2.33301 -101.499 7s-57.666 11 -81.999 19s-46 17.5 -65 28.5s-36.5 23.167 -52.5 36.5h-181v278h283v-6c0.666992 -19.333 6.66699 -36.166 18 -50.499s26.166 -26.5 44.499 -36.5
s39.166 -17.5 62.499 -22.5s48 -7.5 74 -7.5c60 0 103.667 7.83301 131 23.5s41 35.834 41 60.501c0 19.333 -6.66699 35.833 -20 49.5s-37 24.5 -71 32.5l-192 41c-120.667 23.333 -211.667 62.166 -273 116.499s-92 124.166 -92 209.499c0 50 11.667 95.5 35 136.5
s55 76 95 105s86.833 51.5 140.5 67.5s111.167 24 172.5 24c42 0 79.333 -2.5 112 -7.5s62 -11.5 88 -19.5s48.833 -17.5 68.5 -28.5s37.167 -22.5 52.5 -34.5h174v-278h-258c0 16 -5.16699 31.333 -15.5 46zM943.997 1462l-272 -325h-240l-274 325h246l147 -153l146 153
h247z" />
    <glyph glyph-name="Ydieresis" unicode="&#x178;" horiz-adv-x="1536" 
d="M47 1516h649v-275h-127l203 -348l215 348h-145v275h649v-275h-112l-451 -612v-355h184v-274h-676v274h168v359l-424 608h-133v275zM351 1823c0 24.667 4.5 47.834 13.5 69.501s21.5 40.667 37.5 57s34.833 29.166 56.5 38.499s45.167 14 70.5 14
c24 0 46.667 -4.66699 68 -14s40 -22.166 56 -38.499s28.667 -35.333 38 -57s14 -44.834 14 -69.501s-4.66699 -47.834 -14 -69.501s-22 -40.5 -38 -56.5s-34.667 -28.667 -56 -38s-44 -14 -68 -14c-25.333 0 -48.833 4.66699 -70.5 14s-40.5 22 -56.5 38
s-28.5 34.833 -37.5 56.5s-13.5 44.834 -13.5 69.501zM830 1823c0 24.667 4.66699 47.834 14 69.501s22 40.667 38 57s34.833 29.166 56.5 38.499s45.167 14 70.5 14c24 0 46.667 -4.66699 68 -14s40 -22.166 56 -38.499s28.667 -35.333 38 -57s14 -44.834 14 -69.501
s-4.66699 -47.834 -14 -69.501s-22 -40.5 -38 -56.5s-34.667 -28.667 -56 -38s-44 -14 -68 -14c-25.333 0 -48.833 4.66699 -70.5 14s-40.5 22 -56.5 38s-28.667 34.833 -38 56.5s-14 44.834 -14 69.501z" />
    <glyph glyph-name="Zcaron" unicode="&#x17d;" horiz-adv-x="1290" 
d="M1214 1202l-755 -905h428v235h325v-532h-1151v313l737 906h-409v-240h-326v537h1151v-314zM1031 1942l-272 -325h-240l-274 325h246l147 -153l146 153h247z" />
    <glyph glyph-name="zcaron" unicode="&#x17e;" horiz-adv-x="1140" 
d="M94 164l429 606h-201v-156h-261v422h908v-180l-451 -588h230v199h262v-467h-916v164zM963 1462l-272 -325h-240l-274 325h246l147 -153l146 153h247z" />
    <glyph glyph-name="circumflex" unicode="&#x2c6;" horiz-adv-x="827" 
d="M86 1176l272 325h240l274 -325h-245l-148 153l-145 -153h-248z" />
    <glyph glyph-name="caron" unicode="&#x2c7;" horiz-adv-x="1100" 
d="M872 1462l-272 -325h-240l-274 325h246l147 -153l146 153h247z" />
    <glyph glyph-name="breve" unicode="&#x2d8;" horiz-adv-x="987" 
d="M483 1157c-63.333 0 -119.002 7.16895 -167.002 21.502s-89.667 35.333 -125 63s-65.166 61.5 -89.499 101.5s-44.5 86 -60.5 138h252c13.333 -40 35.833 -70.5 67.5 -91.5s72.5 -31.5 122.5 -31.5c48 0 87.333 9.66699 118 29s54.334 50.666 71.001 93.999h250
c-14.667 -51.333 -34 -97 -58 -137s-53.833 -73.833 -89.5 -101.5s-77.5 -48.834 -125.5 -63.501s-103.333 -22 -166 -22z" />
    <glyph glyph-name="dotaccent" unicode="&#x2d9;" horiz-adv-x="539" 
d="M92 1370c0 24.667 4.5 47.834 13.5 69.501s21.5 40.5 37.5 56.5s34.833 28.667 56.5 38s45.167 14 70.5 14c24 0 46.667 -4.66699 68 -14s40 -22 56 -38s28.667 -34.833 38 -56.5s14 -44.834 14 -69.501s-4.66699 -47.834 -14 -69.501s-22 -40.5 -38 -56.5
s-34.667 -28.667 -56 -38s-44 -14 -68 -14c-25.333 0 -48.833 4.66699 -70.5 14s-40.5 22 -56.5 38s-28.5 34.833 -37.5 56.5s-13.5 44.834 -13.5 69.501z" />
    <glyph glyph-name="ring" unicode="&#x2da;" horiz-adv-x="1200" 
d="M606 1546c43.333 0 84.333 -8.33301 123 -25s72.5 -39.334 101.5 -68.001s51.833 -62.334 68.5 -101.001s25 -79.667 25 -123s-8.33301 -84.333 -25 -123s-39.5 -72.5 -68.5 -101.5s-62.833 -51.833 -101.5 -68.5s-79.667 -25 -123 -25s-84.333 8.33301 -123 25
s-72.334 39.5 -101.001 68.5s-51.334 62.833 -68.001 101.5s-25 79.667 -25 123s8.33301 84.333 25 123s39.334 72.334 68.001 101.001s62.334 51.334 101.001 68.001s79.667 25 123 25zM481 1229c0 -17.333 3.33301 -33.666 10 -48.999s15.667 -28.666 27 -39.999
s24.5 -20.166 39.5 -26.499s31.167 -9.5 48.5 -9.5s33.5 3.16699 48.5 9.5s28 15.166 39 26.499s19.667 24.666 26 39.999s9.5 31.666 9.5 48.999s-3.16699 33.5 -9.5 48.5s-15 28 -26 39s-24 19.667 -39 26s-31.167 9.5 -48.5 9.5s-33.5 -3.16699 -48.5 -9.5
s-28.167 -15 -39.5 -26s-20.333 -24 -27 -39s-10 -31.167 -10 -48.5z" />
    <glyph glyph-name="ogonek" unicode="&#x2db;" horiz-adv-x="0" 
d="M469 29c-44 -19.333 -81 -38.001 -111 -56.001s-54.333 -36.5 -73 -55.5s-32 -38.5 -40 -58.5s-12 -41.333 -12 -64c0 -12.667 2.66699 -23.334 8 -32.001s12.333 -15.5 21 -20.5s18.5 -8.66699 29.5 -11s22.5 -3.5 34.5 -3.5c25.333 0 47 2.16699 65 6.5
s33.667 9.5 47 15.5l49 -166c-7.33301 -4 -17.666 -8.33301 -30.999 -13s-28.333 -9.16699 -45 -13.5s-34 -7.83301 -52 -10.5s-34.667 -4 -50 -4c-40.667 0 -78 4.5 -112 13.5s-63.5 22.167 -88.5 39.5s-44.5 38.833 -58.5 64.5s-21 55.5 -21 89.5s6 65.833 18 95.5
s27.833 56.834 47.5 81.501s42.167 46.834 67.5 66.501s51.166 37 77.499 52s52 27.5 77 37.5s47.167 17.667 66.5 23z" />
    <glyph glyph-name="tilde" unicode="&#x2dc;" horiz-adv-x="903" 
d="M295 1479c28 0 55.002 -4.83203 81.002 -14.499s51.5 -20.334 76.5 -32.001s49.333 -22.334 73 -32.001s47.167 -14.5 70.5 -14.5c28 0 52.833 5 74.5 15s41.167 27.667 58.5 53l158 -70c-10 -30 -24.167 -58 -42.5 -84s-39.5 -48.833 -63.5 -68.5s-50.333 -35 -79 -46
s-58.667 -16.5 -90 -16.5c-34.667 0 -66 4.5 -94 13.5s-54.5 19 -79.5 30s-49.5 21.167 -73.5 30.5s-49.333 14 -76 14c-30 0 -55.333 -6.16699 -76 -18.5s-37.667 -27.166 -51 -44.499l-152 70c9.33301 36 25.166 67.333 47.499 94s47.166 49 74.499 67
s55.5 31.5 84.5 40.5s55.167 13.5 78.5 13.5z" />
    <glyph glyph-name="hungarumlaut" unicode="&#x2dd;" horiz-adv-x="1317" 
d="M1038 1782l-280 -320h-189l209 320h260zM641 1782l-256 -320h-186l184 320h258z" />
    <glyph glyph-name="endash" unicode="&#x2013;" horiz-adv-x="1229" 
d="M102 733h1024v-274h-1024v274z" />
    <glyph glyph-name="emdash" unicode="&#x2014;" horiz-adv-x="1843" 
d="M0 733h1843v-274h-1843v274z" />
    <glyph glyph-name="quoteleft" unicode="&#x2018;" horiz-adv-x="530" 
d="M305 1651l205 -78l-184 -569l-306 106z" />
    <glyph glyph-name="quoteright" unicode="&#x2019;" horiz-adv-x="532" 
d="M205 1634l305 -106l-285 -541l-205 78z" />
    <glyph glyph-name="quotedblleft" unicode="&#x201c;" horiz-adv-x="938" 
d="M737 1657l221 -84l-215 -584l-284 107zM274 1663l222 -92l-242 -572l-285 107z" />
    <glyph glyph-name="quotedblright" unicode="&#x201d;" horiz-adv-x="981" 
d="M215 995l-221 84l215 584l285 -107zM678 989l-221 92l241 572l285 -107z" />
    <glyph glyph-name="quotedblbase" unicode="&#x201e;" horiz-adv-x="981" 
d="M215 -392l-221 84l215 584l285 -107zM678 -398l-221 92l241 572l285 -107z" />
    <glyph glyph-name="bullet" unicode="&#x2022;" horiz-adv-x="1024" 
d="M180 778c0 46 8.83301 89 26.5 129s41.5 74.833 71.5 104.5s65.167 53.167 105.5 70.5s83.166 26 128.499 26s88 -8.66699 128 -26s75 -40.833 105 -70.5s53.667 -64.5 71 -104.5s26 -83 26 -129c0 -45.333 -8.66699 -88.166 -26 -128.499s-41 -75.5 -71 -105.5
s-65 -53.833 -105 -71.5s-82.667 -26.5 -128 -26.5s-88.166 8.83301 -128.499 26.5s-75.5 41.5 -105.5 71.5s-53.833 65.167 -71.5 105.5s-26.5 83.166 -26.5 128.499z" />
    <glyph glyph-name="ellipsis" unicode="&#x2026;" horiz-adv-x="1315" 
d="M31 143c0 24.667 4.83301 47.667 14.5 69s23 39.666 40 54.999s36.833 27.5 59.5 36.5s46.667 13.5 72 13.5c24.667 0 48.667 -4.5 72 -13.5s43.666 -21.167 60.999 -36.5s31.333 -33.666 42 -54.999s16 -44.333 16 -69c0 -23.333 -5.33301 -45.5 -16 -66.5
s-24.667 -39.5 -42 -55.5s-37.666 -28.667 -60.999 -38s-47.333 -14 -72 -14c-25.333 0 -49.333 4.66699 -72 14s-42.5 22 -59.5 38s-30.333 34.5 -40 55.5s-14.5 43.167 -14.5 66.5zM469 143c0 24.667 4.83301 47.667 14.5 69s23 39.666 40 54.999s36.833 27.5 59.5 36.5
s46.667 13.5 72 13.5s49.5 -4.5 72.5 -13.5s43.333 -21.167 61 -36.5s31.667 -33.666 42 -54.999s15.5 -44.333 15.5 -69c0 -23.333 -5.16699 -45.5 -15.5 -66.5s-24.333 -39.5 -42 -55.5s-38 -28.667 -61 -38s-47.167 -14 -72.5 -14s-49.333 4.66699 -72 14
s-42.5 22 -59.5 38s-30.333 34.5 -40 55.5s-14.5 43.167 -14.5 66.5zM907 143c0 24.667 4.83301 47.667 14.5 69s23 39.666 40 54.999s36.833 27.5 59.5 36.5s47 13.5 73 13.5c24.667 0 48.5 -4.5 71.5 -13.5s43.333 -21.167 61 -36.5s31.667 -33.666 42 -54.999
s15.5 -44.333 15.5 -69c0 -23.333 -5.16699 -45.5 -15.5 -66.5s-24.333 -39.5 -42 -55.5s-38 -28.667 -61 -38s-46.833 -14 -71.5 -14c-26 0 -50.333 4.66699 -73 14s-42.5 22 -59.5 38s-30.333 34.5 -40 55.5s-14.5 43.167 -14.5 66.5z" />
    <glyph glyph-name="guilsinglleft" unicode="&#x2039;" horiz-adv-x="598" 
d="M567 223h-229l-256 370v74l260 369h223l-211 -406z" />
    <glyph glyph-name="guilsinglright" unicode="&#x203a;" horiz-adv-x="594" 
d="M244 630l-211 406h223l260 -369v-74l-256 -370h-229z" />
    <glyph glyph-name="fraction" unicode="&#x2044;" horiz-adv-x="1200" 
d="M1042 1577h256l-1245 -1638h-262z" />
    <glyph glyph-name="twoinferior" unicode="&#x2082;" horiz-adv-x="721" 
d="M86 190l269.999 200.997c14.667 11.333 25.834 21.5 33.501 30.5s13.334 17.167 17.001 24.5s5.83398 13.833 6.50098 19.5s1 10.834 1 15.501c0 11.333 -4.33301 21 -13 29s-21.667 12 -39 12c-13.333 0 -23.833 -2.5 -31.5 -7.5s-13.334 -11 -17.001 -18s-6 -14 -7 -21
s-1.5 -12.5 -1.5 -16.5h-225c-0.666992 47.333 6.5 88.333 21.5 123s35.833 63.334 62.5 86.001s58.167 39.5 94.5 50.5s75.833 16.5 118.5 16.5c33.333 0 66.666 -4.66699 99.999 -14s63.5 -23.666 90.5 -42.999s49 -43.5 66 -72.5s25.5 -63.5 25.5 -103.5
c0 -20 -2.16699 -37.833 -6.5 -53.5s-10.5 -30 -18.5 -43s-17.5 -25 -28.5 -36s-23.167 -22.167 -36.5 -33.5l-159 -133h249v-205h-573v192z" />
    <glyph glyph-name="fourinferior" unicode="&#x2084;" horiz-adv-x="1078" 
d="M214 348l280 416h215l-282 -422h168v166h202v-166h105v-160h-105v-182h-202v182h-379z" />
    <glyph glyph-name="minus" unicode="&#x2212;" horiz-adv-x="1229" 
d="M102 733h1024v-274h-1024v274z" />
    <glyph glyph-name="nonmarkingreturn" horiz-adv-x="0" 
 />
    <glyph glyph-name="solidus" horiz-adv-x="369" 
d="M720 1154h256l-923 -1215h-262z" />
    </font>
</defs>
</svg>
